<?xml version="1.0" standalone="no"?>
<!DOCTYPE svg PUBLIC "-//W3C//DTD SVG 1.1//EN" "http://www.w3.org/Graphics/SVG/1.1/DTD/svg11.dtd" >
<svg xmlns="http://www.w3.org/2000/svg">
<metadata>
<json>
{
	"fontFamily": "Defaults",
	"majorVersion": 1,
	"minorVersion": 0,
	"version": "Version 1.0",
	"fontId": "Defaults",
	"psName": "Defaults",
	"subFamily": "Regular",
	"fullName": "Defaults",
	"description": "Font generated by IcoMoon."
}
</json>
</metadata>
<defs>
<font id="Defaults" horiz-adv-x="1024">
<font-face units-per-em="1024" ascent="960" descent="-64" />
<missing-glyph horiz-adv-x="1024" />
<glyph unicode="&#x20;" horiz-adv-x="512" d="" />
<glyph unicode="&#xf000;" glyph-name="glass" d="M970.856 844.572q0-20-24.572-44.57l-361.142-361.144v-438.856h182.856q14.856 0 25.714-10.856t10.856-25.714-10.856-25.714-25.714-10.856h-512q-14.856 0-25.714 10.856t-10.856 25.714 10.856 25.714 25.714 10.856h182.856v438.856l-361.142 361.144q-24.57 24.57-24.57 44.57 0 13.144 10.286 20.858t21.714 10 24.57 2.286h804.572q13.144 0 24.572-2.286t21.714-10 10.286-20.858z" />
<glyph unicode="&#xf001;" glyph-name="music" d="M877.714 822.858v-640q0-28.572-19.428-50.856t-49.144-34.572-59.144-18.286-55.144-6-55.144 6-59.144 18.286-49.144 34.572-19.428 50.856 19.428 50.856 49.144 34.572 59.144 18.286 55.144 6q60 0 109.714-22.286v306.856l-438.858-135.428v-405.142q0-28.572-19.428-50.856t-49.142-34.572-59.144-18.286-55.144-6-55.144 6-59.144 18.286-49.144 34.572-19.428 50.856 19.428 50.856 49.144 34.572 59.144 18.286 55.144 6q60 0 109.714-22.286v552.572q0 17.714 10.856 32.286t28 20.286l475.428 146.286q6.856 2.286 16 2.286 22.856 0 38.856-16t16-38.858z" />
<glyph unicode="&#xf002;" glyph-name="search" horiz-adv-x="952" d="M658.286 475.428q0 105.714-75.144 180.856t-180.856 75.142-180.856-75.142-75.144-180.856 75.144-180.856 180.856-75.144 180.856 75.144 75.144 180.856zM950.856 0q0-29.714-21.714-51.428t-51.428-21.714q-30.856 0-51.428 21.714l-196 195.428q-102.286-70.856-228-70.856-81.714 0-156.286 31.714t-128.57 85.714-85.714 128.572-31.714 156.286 31.714 156.286 85.714 128.57 128.57 85.714 156.286 31.714 156.286-31.714 128.572-85.714 85.714-128.57 31.714-156.286q0-125.714-70.856-228l196-196q21.144-21.144 21.144-51.428z" />
<glyph unicode="&#xf003;" glyph-name="envelope-o" d="M950.856 91.428v438.856q-18.286-20.572-39.428-37.714-153.144-117.714-243.428-193.144-29.144-24.572-47.428-38.286t-49.428-27.714-58.572-14h-1.142q-27.428 0-58.57 14t-49.428 27.714-47.428 38.286q-90.286 75.428-243.43 193.144-21.144 17.144-39.43 37.714v-438.856q0-7.428 5.43-12.856t12.856-5.428h841.144q7.428 0 12.856 5.428t5.428 12.856zM950.856 692v14t-0.286 7.428-1.714 7.144-3.144 5.144-5.144 4.286-8 1.428h-841.144q-7.43 0-12.856-5.428t-5.43-12.858q0-96 84-162.286 110.286-86.856 229.142-181.144 3.428-2.856 20-16.856t26.286-21.428 25.428-18 28.858-15.714 24.572-5.144h1.144q11.428 0 24.572 5.144t28.856 15.714 25.428 18 26.286 21.428 20 16.856q118.856 94.286 229.144 181.144 30.856 24.572 57.428 66t26.572 75.144zM1024 713.144v-621.714q0-37.714-26.856-64.572t-64.572-26.856h-841.144q-37.714 0-64.57 26.856t-26.856 64.572v621.714q0 37.714 26.856 64.572t64.57 26.856h841.144q37.714 0 64.572-26.856t26.856-64.572z" />
<glyph unicode="&#xf004;" glyph-name="heart" d="M512 0q-14.856 0-25.144 10.286l-356.572 344q-5.714 4.572-15.714 14.856t-31.714 37.428-38.856 55.714-30.572 69.144-13.43 78.856q0 125.714 72.57 196.57t200.57 70.858q35.428 0 72.286-12.286t68.57-33.142 54.572-39.144 43.428-38.856q20.572 20.57 43.428 38.856t54.572 39.144 68.572 33.142 72.286 12.286q128 0 200.572-70.858t72.572-196.57q0-126.286-130.856-257.144l-356-342.856q-10.286-10.286-25.144-10.286z" />
<glyph unicode="&#xf005;" glyph-name="star" horiz-adv-x="952" d="M950.856 581.144q0-12.572-14.856-27.428l-207.428-202.286 49.144-285.714q0.572-4 0.572-11.428 0-12-6-20.286t-17.428-8.286q-10.856 0-22.856 6.856l-256.572 134.856-256.572-134.856q-12.57-6.856-22.856-6.856-12 0-18 8.286t-6 20.286q0 3.428 1.144 11.428l49.144 285.714-208 202.286q-14.286 15.428-14.286 27.428 0 21.144 32 26.286l286.856 41.714 128.572 260q10.856 23.428 28 23.428t28-23.428l128.572-260 286.858-41.714q32-5.144 32-26.286z" />
<glyph unicode="&#xf006;" glyph-name="star-o" horiz-adv-x="952" d="M649.714 377.144l174.856 169.714-241.144 35.43-108 218.286-108-218.286-241.144-35.428 174.856-169.714-41.714-240.572 216 113.714 215.428-113.714zM950.856 581.144q0-12.572-14.856-27.428l-207.428-202.286 49.144-285.714q0.572-4 0.572-11.428 0-28.572-23.428-28.572-10.856 0-22.856 6.856l-256.572 134.856-256.572-134.856q-12.57-6.856-22.856-6.856-12 0-18 8.286t-6 20.286q0 3.428 1.144 11.428l49.144 285.714-208 202.286q-14.286 15.428-14.286 27.428 0 21.144 32 26.286l286.856 41.714 128.572 260q10.856 23.428 28 23.428t28-23.428l128.572-260 286.858-41.714q32-5.144 32-26.286z" />
<glyph unicode="&#xf007;" glyph-name="user" horiz-adv-x="806" d="M804.572 148q0-68.572-41.714-108.286t-110.856-39.714h-499.428q-69.144 0-110.856 39.714t-41.714 108.286q0 30.286 2 59.144t8 62.286 15.144 62 24.57 55.714 35.43 46.286 48.856 30.572 63.714 11.428q5.144 0 24-12.286t42.57-27.428 61.714-27.428 76.286-12.286 76.286 12.286 61.714 27.428 42.572 27.428 24 12.286q34.856 0 63.714-11.428t48.856-30.57 35.428-46.286 24.572-55.714 15.144-62 8-62.286 2-59.144zM621.714 658.286q0-90.856-64.286-155.144t-155.144-64.286-155.144 64.286-64.286 155.144 64.286 155.142 155.144 64.286 155.144-64.286 64.286-155.142z" />
<glyph unicode="&#xf008;" glyph-name="film" horiz-adv-x="1098" d="M219.43 36.572v73.144q0 14.856-10.856 25.714t-25.714 10.856h-73.144q-14.856 0-25.714-10.856t-10.856-25.714v-73.144q0-14.856 10.856-25.714t25.714-10.856h73.144q14.856 0 25.714 10.856t10.856 25.714zM219.43 256v73.144q0 14.856-10.856 25.714t-25.714 10.856h-73.144q-14.856 0-25.714-10.856t-10.856-25.714v-73.144q0-14.856 10.856-25.714t25.714-10.856h73.144q14.856 0 25.714 10.856t10.856 25.714zM219.43 475.428v73.144q0 14.856-10.856 25.714t-25.714 10.858h-73.144q-14.856 0-25.714-10.856t-10.856-25.714v-73.142q0-14.856 10.856-25.714t25.714-10.856h73.144q14.856 0 25.714 10.856t10.856 25.714zM804.572 36.572v292.572q0 14.856-10.856 25.714t-25.714 10.856h-438.858q-14.858 0-25.714-10.856t-10.856-25.714v-292.572q0-14.856 10.856-25.714t25.714-10.856h438.858q14.856 0 25.714 10.856t10.856 25.714zM219.43 694.858v73.144q0 14.856-10.856 25.714t-25.714 10.856h-73.144q-14.856 0-25.714-10.856t-10.856-25.714v-73.144q0-14.856 10.856-25.714t25.714-10.856h73.144q14.856 0 25.714 10.856t10.856 25.714zM1024 36.572v73.144q0 14.856-10.856 25.714t-25.714 10.856h-73.144q-14.856 0-25.714-10.856t-10.856-25.714v-73.144q0-14.856 10.856-25.714t25.714-10.856h73.144q14.856 0 25.714 10.856t10.856 25.714zM804.572 475.428v292.572q0 14.856-10.856 25.714t-25.714 10.856h-438.858q-14.858 0-25.714-10.856t-10.856-25.714v-292.572q0-14.856 10.856-25.714t25.714-10.856h438.858q14.856 0 25.714 10.856t10.856 25.714zM1024 256v73.144q0 14.856-10.856 25.714t-25.714 10.856h-73.144q-14.856 0-25.714-10.856t-10.856-25.714v-73.144q0-14.856 10.856-25.714t25.714-10.856h73.144q14.856 0 25.714 10.856t10.856 25.714zM1024 475.428v73.144q0 14.856-10.856 25.714t-25.714 10.858h-73.144q-14.856 0-25.714-10.856t-10.856-25.714v-73.142q0-14.856 10.856-25.714t25.714-10.856h73.144q14.856 0 25.714 10.856t10.856 25.714zM1024 694.858v73.144q0 14.856-10.856 25.714t-25.714 10.856h-73.144q-14.856 0-25.714-10.856t-10.856-25.714v-73.144q0-14.856 10.856-25.714t25.714-10.856h73.144q14.856 0 25.714 10.856t10.856 25.714zM1097.144 786.286v-768q0-37.714-26.856-64.572t-64.572-26.856h-914.286q-37.714 0-64.57 26.856t-26.856 64.572v768q0 37.714 26.856 64.572t64.57 26.856h914.286q37.714 0 64.572-26.856t26.856-64.572z" />
<glyph unicode="&#xf009;" glyph-name="th-large" horiz-adv-x="952" d="M438.858 365.714v-219.428q0-29.714-21.714-51.428t-51.428-21.714h-292.572q-29.714 0-51.43 21.714t-21.714 51.428v219.428q0 29.714 21.714 51.428t51.43 21.714h292.572q29.714 0 51.428-21.714t21.714-51.428zM438.858 804.572v-219.428q0-29.714-21.714-51.428t-51.428-21.714h-292.572q-29.714 0-51.43 21.714t-21.714 51.428v219.428q0 29.714 21.714 51.428t51.43 21.714h292.572q29.714 0 51.428-21.714t21.714-51.428zM950.856 365.714v-219.428q0-29.714-21.714-51.428t-51.428-21.714h-292.572q-29.714 0-51.428 21.714t-21.714 51.428v219.428q0 29.714 21.714 51.428t51.428 21.714h292.572q29.714 0 51.428-21.714t21.714-51.428zM950.856 804.572v-219.428q0-29.714-21.714-51.428t-51.428-21.714h-292.572q-29.714 0-51.428 21.714t-21.714 51.428v219.428q0 29.714 21.714 51.428t51.428 21.714h292.572q29.714 0 51.428-21.714t21.714-51.428z" />
<glyph unicode="&#xf00a;" glyph-name="th" d="M292.572 237.714v-109.714q0-22.856-16-38.856t-38.856-16h-182.856q-22.856 0-38.856 16t-16 38.856v109.714q0 22.856 16 38.856t38.856 16h182.856q22.856 0 38.856-16t16-38.856zM292.572 530.286v-109.714q0-22.856-16-38.856t-38.856-16h-182.856q-22.856 0-38.856 16t-16 38.856v109.714q0 22.858 16 38.858t38.856 16h182.856q22.856 0 38.856-16t16-38.856zM658.286 237.714v-109.714q0-22.856-16-38.856t-38.856-16h-182.856q-22.856 0-38.856 16t-16 38.856v109.714q0 22.856 16 38.856t38.856 16h182.856q22.856 0 38.856-16t16-38.856zM292.572 822.858v-109.714q0-22.856-16-38.856t-38.856-16h-182.856q-22.856 0-38.856 16t-16 38.856v109.714q0 22.856 16 38.856t38.856 16h182.856q22.856 0 38.856-16t16-38.856zM658.286 530.286v-109.714q0-22.856-16-38.856t-38.856-16h-182.856q-22.856 0-38.856 16t-16 38.856v109.714q0 22.858 16 38.858t38.856 16h182.856q22.856 0 38.856-16t16-38.856zM1024 237.714v-109.714q0-22.856-16-38.856t-38.856-16h-182.856q-22.856 0-38.856 16t-16 38.856v109.714q0 22.856 16 38.856t38.856 16h182.856q22.856 0 38.856-16t16-38.856zM658.286 822.858v-109.714q0-22.856-16-38.856t-38.856-16h-182.856q-22.856 0-38.856 16t-16 38.856v109.714q0 22.856 16 38.856t38.856 16h182.856q22.856 0 38.856-16t16-38.856zM1024 530.286v-109.714q0-22.856-16-38.856t-38.856-16h-182.856q-22.856 0-38.856 16t-16 38.856v109.714q0 22.858 16 38.858t38.856 16h182.856q22.856 0 38.856-16t16-38.856zM1024 822.858v-109.714q0-22.856-16-38.856t-38.856-16h-182.856q-22.856 0-38.856 16t-16 38.856v109.714q0 22.856 16 38.856t38.856 16h182.856q22.856 0 38.856-16t16-38.856z" />
<glyph unicode="&#xf00b;" glyph-name="th-list" d="M292.572 237.714v-109.714q0-22.856-16-38.856t-38.856-16h-182.856q-22.856 0-38.856 16t-16 38.856v109.714q0 22.856 16 38.856t38.856 16h182.856q22.856 0 38.856-16t16-38.856zM292.572 530.286v-109.714q0-22.856-16-38.856t-38.856-16h-182.856q-22.856 0-38.856 16t-16 38.856v109.714q0 22.858 16 38.858t38.856 16h182.856q22.856 0 38.856-16t16-38.856zM1024 237.714v-109.714q0-22.856-16-38.856t-38.856-16h-548.572q-22.856 0-38.856 16t-16 38.856v109.714q0 22.856 16 38.856t38.856 16h548.572q22.856 0 38.856-16t16-38.856zM292.572 822.858v-109.714q0-22.856-16-38.856t-38.856-16h-182.856q-22.856 0-38.856 16t-16 38.856v109.714q0 22.856 16 38.856t38.856 16h182.856q22.856 0 38.856-16t16-38.856zM1024 530.286v-109.714q0-22.856-16-38.856t-38.856-16h-548.572q-22.856 0-38.856 16t-16 38.856v109.714q0 22.858 16 38.858t38.856 16h548.572q22.856 0 38.856-16t16-38.856zM1024 822.858v-109.714q0-22.856-16-38.856t-38.856-16h-548.572q-22.856 0-38.856 16t-16 38.856v109.714q0 22.856 16 38.856t38.856 16h548.572q22.856 0 38.856-16t16-38.856z" />
<glyph unicode="&#xf00c;" glyph-name="check" d="M954.856 627.428q0-22.856-16-38.856l-491.428-491.428q-16-16-38.856-16t-38.856 16l-284.572 284.572q-16 16-16 38.856t16 38.856l77.714 77.714q16 16 38.856 16t38.856-16l168-168.57 374.858 375.428q16 16 38.856 16t38.856-16l77.714-77.714q16-16 16-38.856z" />
<glyph unicode="&#xf00d;" glyph-name="close" horiz-adv-x="806" d="M741.714 195.428q0-22.856-16-38.856l-77.714-77.714q-16-16-38.856-16t-38.856 16l-168 168-168-168q-16-16-38.856-16t-38.856 16l-77.714 77.714q-16 16-16 38.856t16 38.856l168 168-168 168q-16 16-16 38.856t16 38.856l77.714 77.714q16 16 38.856 16t38.856-16l168-168 168 168q16 16 38.856 16t38.856-16l77.714-77.714q16-16 16-38.856t-16-38.856l-168-168 168-168q16-16 16-38.856z" />
<glyph unicode="&#xf00e;" glyph-name="search-plus" horiz-adv-x="952" d="M585.144 493.714v-36.57q0-7.428-5.428-12.856t-12.856-5.428h-128v-128q0-7.428-5.428-12.856t-12.856-5.428h-36.572q-7.428 0-12.856 5.428t-5.428 12.856v128h-128q-7.43 0-12.856 5.428t-5.43 12.856v36.572q0 7.428 5.43 12.856t12.856 5.428h128v128q0 7.428 5.428 12.856t12.856 5.428h36.572q7.428 0 12.856-5.428t5.428-12.856v-128h128q7.428 0 12.856-5.428t5.428-12.856zM658.286 475.428q0 105.714-75.144 180.856t-180.856 75.142-180.856-75.142-75.144-180.856 75.144-180.856 180.856-75.144 180.856 75.144 75.144 180.856zM950.856 0q0-30.286-21.428-51.714t-51.714-21.43q-30.856 0-51.428 21.714l-196 195.428q-102.286-70.856-228-70.856-81.714 0-156.286 31.714t-128.57 85.714-85.714 128.572-31.714 156.286 31.714 156.286 85.714 128.57 128.57 85.714 156.286 31.714 156.286-31.714 128.572-85.714 85.714-128.57 31.714-156.286q0-125.714-70.856-228l196-196q21.144-21.144 21.144-51.428z" />
<glyph unicode="&#xf010;" glyph-name="search-minus" horiz-adv-x="952" d="M585.144 493.714v-36.57q0-7.428-5.428-12.856t-12.856-5.428h-329.142q-7.43 0-12.856 5.428t-5.43 12.856v36.572q0 7.428 5.43 12.856t12.856 5.428h329.142q7.428 0 12.856-5.428t5.428-12.856zM658.286 475.428q0 105.714-75.144 180.856t-180.856 75.142-180.856-75.142-75.144-180.856 75.144-180.856 180.856-75.144 180.856 75.144 75.144 180.856zM950.856 0q0-30.286-21.428-51.714t-51.714-21.43q-30.856 0-51.428 21.714l-196 195.428q-102.286-70.856-228-70.856-81.714 0-156.286 31.714t-128.57 85.714-85.714 128.572-31.714 156.286 31.714 156.286 85.714 128.57 128.57 85.714 156.286 31.714 156.286-31.714 128.572-85.714 85.714-128.57 31.714-156.286q0-125.714-70.856-228l196-196q21.144-21.144 21.144-51.428z" />
<glyph unicode="&#xf011;" glyph-name="power-off" d="M877.714 438.858q0-89.144-34.856-170.286t-93.714-140-140-93.714-170.286-34.856-170.286 34.856-140 93.714-93.714 140-34.856 170.286q0 104 46 196t129.43 154.286q24.57 18.286 54.57 14.286t47.714-28.572q18.286-24 14-54t-28.286-48.286q-56-42.286-86.57-103.428t-30.57-130.286q0-59.428 23.144-113.428t62.57-93.428 93.43-62.572 113.428-23.144 113.428 23.144 93.428 62.572 62.572 93.428 23.144 113.428q0 69.144-30.572 130.286t-86.572 103.43q-24 18.286-28.286 48.286t14 54q17.714 24.572 48 28.572t54.286-14.286q83.428-62.286 129.428-154.286t46-196zM512 877.714v-365.714q0-29.714-21.714-51.428t-51.43-21.714-51.428 21.714-21.714 51.428v365.714q0 29.714 21.714 51.43t51.428 21.714 51.428-21.714 21.714-51.43z" />
<glyph unicode="&#xf012;" glyph-name="signal" d="M146.286 128v-109.714q0-8-5.144-13.144t-13.144-5.144h-109.714q-8 0-13.144 5.144t-5.142 13.144v109.714q0 8 5.142 13.144t13.144 5.144h109.714q8 0 13.144-5.144t5.144-13.144zM365.714 201.144v-182.856q0-8-5.142-13.144t-13.144-5.144h-109.714q-8 0-13.144 5.144t-5.144 13.144v182.856q0 8 5.144 13.144t13.144 5.144h109.714q8 0 13.144-5.144t5.142-13.144zM585.144 347.428v-329.142q0-8-5.144-13.144t-13.144-5.144h-109.714q-8 0-13.142 5.144t-5.142 13.144v329.144q0 8 5.142 13.144t13.144 5.144h109.714q8 0 13.144-5.144t5.144-13.144zM804.572 566.858v-548.572q0-8-5.144-13.144t-13.144-5.144h-109.714q-8 0-13.144 5.144t-5.144 13.144v548.572q0 8 5.144 13.144t13.144 5.142h109.714q8 0 13.144-5.142t5.144-13.144zM1024 859.428v-841.142q0-8-5.144-13.144t-13.144-5.144h-109.714q-8 0-13.144 5.144t-5.144 13.144v841.144q0 8 5.144 13.142t13.144 5.144h109.714q8 0 13.144-5.144t5.144-13.142z" />
<glyph unicode="&#xf013;" glyph-name="cog" d="M585.144 438.858q0 60.572-42.856 103.428t-103.428 42.856-103.428-42.856-42.856-103.428 42.856-103.428 103.428-42.856 103.428 42.856 42.856 103.428zM877.714 501.144v-126.856q0-6.856-4.572-13.144t-11.428-7.428l-105.714-16q-10.856-30.856-22.286-52 20-28.572 61.144-78.856 5.714-6.856 5.714-14.286t-5.144-13.144q-15.428-21.144-56.572-61.714t-53.714-40.572q-6.856 0-14.856 5.144l-78.856 61.714q-25.144-13.144-52-21.714-9.144-77.714-16.572-106.286-4-16-20.572-16h-126.856q-8 0-14 4.856t-6.572 12.286l-16 105.144q-28 9.144-51.428 21.144l-80.57-61.144q-5.714-5.144-14.286-5.144-8 0-14.286 6.286-72 65.144-94.286 96-4 5.714-4 13.144 0 6.856 4.57 13.144 8.57 12 29.144 38t30.856 40.286q-15.43 28.572-23.43 56.572l-104.57 15.428q-7.43 1.144-12 7.144t-4.57 13.428v126.856q0 6.856 4.57 13.144t10.856 7.428l106.286 16q8 26.286 22.286 52.572-22.856 32.572-61.144 78.856-5.714 6.856-5.714 13.714 0 5.714 5.144 13.144 14.856 20.572 56.286 61.428t54 40.856q7.43 0 14.856-5.714l78.856-61.144q25.144 13.144 52 21.714 9.144 77.714 16.572 106.286 4 16 20.572 16h126.856q8 0 14-4.856t6.572-12.286l16-105.142q28-9.144 51.428-21.144l81.144 61.144q5.144 5.142 13.714 5.142 7.428 0 14.286-5.714 73.714-68 94.286-97.144 4-4.572 4-12.572 0-6.856-4.572-13.142-8.572-12-29.144-38t-30.856-40.286q14.856-28.572 23.428-56l104.572-16q7.428-1.142 12-7.142t4.572-13.428z" />
<glyph unicode="&#xf014;" glyph-name="trash-o" horiz-adv-x="806" d="M292.572 530.286v-329.142q0-8-5.142-13.144t-13.142-5.144h-36.57q-8 0-13.144 5.144t-5.144 13.144v329.142q0 8 5.144 13.144t13.144 5.142h36.57q8 0 13.144-5.142t5.142-13.144zM438.858 530.286v-329.142q0-8-5.142-13.144t-13.144-5.144h-36.572q-8 0-13.144 5.144t-5.142 13.144v329.142q0 8 5.142 13.144t13.144 5.142h36.572q8 0 13.144-5.142t5.142-13.144zM585.144 530.286v-329.142q0-8-5.144-13.144t-13.144-5.144h-36.572q-8 0-13.144 5.144t-5.142 13.144v329.142q0 8 5.142 13.144t13.144 5.142h36.572q8 0 13.144-5.142t5.144-13.144zM658.286 116.572v541.714h-512v-541.714q0-12.572 4-23.144t8.286-15.428 6-4.856h475.43q1.714 0 6 4.856t8.286 15.428 4 23.144zM274.286 731.428h256l-27.428 66.858q-4 5.142-9.714 6.286h-181.142q-5.714-1.144-9.714-6.286zM804.572 713.144v-36.57q0-8-5.144-13.144t-13.144-5.144h-54.856v-541.714q0-47.428-26.856-82t-64.572-34.572h-475.428q-37.714 0-64.57 33.428t-26.856 80.856v544h-54.856q-8 0-13.144 5.142t-5.142 13.144v36.572q0 8 5.142 13.142t13.144 5.144h176.57l40 95.428q8.57 21.144 30.858 36t45.144 14.856h182.856q22.856 0 45.144-14.856t30.856-36l40-95.428h176.572q8 0 13.144-5.144t5.144-13.142z" />
<glyph unicode="&#xf015;" glyph-name="home" horiz-adv-x="952" d="M804.572 384v-274.286q0-14.856-10.856-25.714t-25.714-10.856h-219.428v219.428h-146.286v-219.428h-219.43q-14.856 0-25.714 10.856t-10.856 25.714v274.286q0 0.572 0.286 1.714t0.286 1.714l328.572 270.856 328.57-270.856q0.572-1.144 0.572-3.428zM932 423.428l-35.428-42.286q-4.572-5.144-12-6.286h-1.714q-7.428 0-12 4l-395.428 329.714-395.428-329.714q-6.856-4.572-13.714-4-7.43 1.144-12 6.286l-35.43 42.286q-4.57 5.714-4 13.428t6.286 12.286l410.856 342.286q18.286 14.856 43.428 14.856t43.428-14.856l139.428-116.572v111.428q0 8 5.144 13.144t13.144 5.144h109.714q8 0 13.144-5.144t5.144-13.144v-233.144l125.144-104q5.714-4.572 6.286-12.286t-4-13.428z" />
<glyph unicode="&#xf016;" glyph-name="file-o" d="M838.856 733.714q16-16 27.428-43.428t11.428-50.286v-658.286q0-22.856-16-38.856t-38.856-16h-768q-22.856 0-38.856 16t-16 38.856v914.286q0 22.856 16 38.856t38.856 16h512q22.856 0 50.286-11.428t43.428-27.428zM585.144 873.144v-214.856h214.856q-5.714 16.572-12.572 23.428l-178.856 178.856q-6.856 6.856-23.428 12.572zM804.572 0v585.144h-237.714q-22.856 0-38.856 16t-16 38.856v237.714h-438.858v-877.714h731.428z" />
<glyph unicode="&#xf017;" glyph-name="clock-o" d="M512 640v-256q0-8-5.142-13.144t-13.142-5.144h-182.856q-8 0-13.144 5.144t-5.142 13.144v36.572q0 8 5.142 13.144t13.144 5.142h128v201.144q0 8 5.142 13.144t13.142 5.142h36.572q8 0 13.144-5.142t5.144-13.144zM749.714 438.858q0 84.572-41.714 156t-113.144 113.144-156 41.714-156-41.714-113.144-113.144-41.714-156 41.714-156 113.144-113.144 156-41.714 156 41.714 113.144 113.144 41.714 156zM877.714 438.858q0-119.428-58.856-220.286t-159.714-159.714-220.286-58.856-220.286 58.856-159.714 159.714-58.856 220.286 58.856 220.286 159.714 159.714 220.286 58.856 220.286-58.856 159.714-159.714 58.856-220.286z" />
<glyph unicode="&#xf018;" glyph-name="road" horiz-adv-x="1098" d="M634.856 381.714v2.286l-13.714 182.856q-0.572 7.428-6.286 12.856t-13.144 5.428h-106.286q-7.428 0-13.142-5.428t-6.286-12.856l-13.714-182.856v-2.286q-0.572-6.856 4.572-11.428t12-4.572h139.428q6.856 0 12 4.572t4.572 11.428zM1068.57 114.858q0-41.714-26.286-41.714h-402.286q7.428 0 12.572 5.428t4.572 12.856l-11.428 146.286q-0.572 7.428-6.286 12.856t-13.144 5.428h-155.428q-7.428 0-13.144-5.428t-6.286-12.856l-11.428-146.286q-0.572-7.428 4.572-12.856t12.572-5.428h-402.286q-26.286 0-26.286 41.714 0 30.856 14.856 66.286l238.286 596.572q4.572 10.856 14.856 18.856t21.714 8h193.714q-7.428 0-13.144-5.428t-6.286-12.856l-8.572-109.714q-0.572-8 4.572-13.144t12.572-5.144h94.858q7.428 0 12.572 5.144t4.572 13.144l-8.572 109.714q-0.572 7.428-6.286 12.858t-13.144 5.428h193.714q11.428 0 21.714-8t14.856-18.858l238.286-596.57q14.856-35.428 14.856-66.286z" />
<glyph unicode="&#xf019;" glyph-name="download" horiz-adv-x="952" d="M731.428 182.858q0 14.856-10.856 25.714t-25.714 10.856-25.714-10.856-10.856-25.714 10.856-25.714 25.714-10.856 25.714 10.856 10.856 25.714zM877.714 182.858q0 14.856-10.856 25.714t-25.714 10.856-25.714-10.856-10.856-25.714 10.856-25.714 25.714-10.856 25.714 10.856 10.856 25.714zM950.856 310.858v-182.856q0-22.856-16-38.856t-38.856-16h-841.144q-22.856 0-38.856 16t-16 38.856v182.856q0 22.856 16 38.856t38.856 16h265.714l77.142-77.714q33.144-32 77.714-32t77.714 32l77.714 77.714h265.144q22.856 0 38.856-16t16-38.856zM765.144 636q9.714-23.428-8-40l-256-256q-10.286-10.856-25.714-10.856t-25.714 10.856l-256 256q-17.714 16.572-8 40 9.714 22.286 33.714 22.286h146.286v256q0 14.858 10.856 25.714t25.714 10.856h146.286q14.856 0 25.714-10.856t10.856-25.714v-256h146.286q24 0 33.714-22.286z" />
<glyph unicode="&#xf01a;" glyph-name="arrow-circle-o-down" d="M640 420.572q0-6.856-5.714-13.714l-182.286-182.286q-6.286-5.144-13.142-5.144t-13.144 5.144l-182.856 182.856q-8.57 9.144-4 20 4.57 11.428 17.144 11.428h109.714v201.144q0 8 5.142 13.144t13.142 5.142h109.714q8 0 13.142-5.142t5.142-13.144v-201.144h109.714q8 0 13.144-5.144t5.144-13.144zM438.858 749.714q-84.57 0-156-41.714t-113.144-113.144-41.714-156 41.714-156 113.144-113.144 156-41.714 156 41.714 113.144 113.144 41.714 156-41.714 156-113.144 113.144-156 41.714zM877.714 438.858q0-119.428-58.856-220.286t-159.714-159.714-220.286-58.856-220.286 58.856-159.714 159.714-58.856 220.286 58.856 220.286 159.714 159.714 220.286 58.856 220.286-58.856 159.714-159.714 58.856-220.286z" />
<glyph unicode="&#xf01b;" glyph-name="arrow-circle-o-up" d="M638.856 450.286q-4.572-11.428-17.144-11.428h-109.714v-201.144q0-8-5.142-13.144t-13.144-5.144h-109.714q-8 0-13.142 5.144t-5.142 13.144v201.144h-109.714q-8 0-13.144 5.142t-5.144 13.144q0 6.856 5.714 13.714l182.286 182.286q6.286 5.142 13.142 5.142t13.144-5.142l182.856-182.856q8.572-9.144 4-20zM438.858 749.714q-84.57 0-156-41.714t-113.144-113.144-41.714-156 41.714-156 113.144-113.144 156-41.714 156 41.714 113.144 113.144 41.714 156-41.714 156-113.144 113.144-156 41.714zM877.714 438.858q0-119.428-58.856-220.286t-159.714-159.714-220.286-58.856-220.286 58.856-159.714 159.714-58.856 220.286 58.856 220.286 159.714 159.714 220.286 58.856 220.286-58.856 159.714-159.714 58.856-220.286z" />
<glyph unicode="&#xf01c;" glyph-name="inbox" d="M584.572 402.286h180.572q-0.572 1.714-1.428 4.572t-1.428 4.572l-121.144 283.428h-404.572l-121.144-283.428q-0.57-1.144-1.43-4.572t-1.43-4.572h180.57l54.286-109.714h182.856zM877.714 385.144v-275.428q0-14.856-10.856-25.714t-25.714-10.856h-804.572q-14.856 0-25.714 10.856t-10.856 25.714v275.428q0 35.428 14.286 70.286l136 315.428q5.714 14.286 20.856 24t30 9.714h475.428q14.856 0 30-9.714t20.856-24l136-315.428q14.286-34.856 14.286-70.286z" />
<glyph unicode="&#xf01d;" glyph-name="play-circle-o" d="M676.572 438.858q0-21.144-18.286-31.428l-310.858-182.856q-8.572-5.144-18.286-5.144-9.144 0-18.286 4.572-18.286 10.856-18.286 32v365.714q0 21.144 18.286 32 18.858 10.286 36.57-0.572l310.858-182.856q18.286-10.286 18.286-31.428zM749.714 438.858q0 84.572-41.714 156t-113.144 113.144-156 41.714-156-41.714-113.144-113.144-41.714-156 41.714-156 113.144-113.144 156-41.714 156 41.714 113.144 113.144 41.714 156zM877.714 438.858q0-119.428-58.856-220.286t-159.714-159.714-220.286-58.856-220.286 58.856-159.714 159.714-58.856 220.286 58.856 220.286 159.714 159.714 220.286 58.856 220.286-58.856 159.714-159.714 58.856-220.286z" />
<glyph unicode="&#xf01e;" glyph-name="repeat" d="M877.714 804.572v-256q0-14.856-10.856-25.714t-25.714-10.856h-256q-24 0-33.714 22.856-9.714 22.286 8 39.428l78.856 78.856q-84.572 78.286-199.428 78.286-59.428 0-113.428-23.144t-93.43-62.57-62.57-93.428-23.144-113.428 23.144-113.428 62.57-93.428 93.43-62.572 113.428-23.144q68 0 128.572 29.714t102.286 84q4 5.714 13.144 6.856 8 0 14.286-5.144l78.286-78.856q5.144-4.572 5.428-11.714t-4.286-12.856q-62.286-75.428-150.856-116.856t-186.856-41.428q-89.144 0-170.286 34.856t-140 93.714-93.714 140-34.856 170.286 34.856 170.286 93.714 140 140 93.714 170.286 34.856q84 0 162.572-31.714t139.714-89.43l74.286 73.714q16.572 17.714 40 8 22.286-9.714 22.286-33.714z" />
<glyph unicode="&#xf021;" glyph-name="refresh" d="M863.428 347.428q0-2.856-0.572-4-36.572-153.144-153.144-248.286t-273.142-95.144q-83.43 0-161.43 31.428t-139.144 89.714l-73.714-73.714q-10.856-10.856-25.714-10.856t-25.714 10.856-10.856 25.714v256q0 14.856 10.856 25.714t25.714 10.856h256q14.856 0 25.714-10.856t10.858-25.714-10.856-25.714l-78.286-78.286q40.57-37.714 92-58.286t106.858-20.572q76.572 0 142.856 37.144t106.286 102.286q6.286 9.714 30.286 66.856 4.572 13.144 17.144 13.144h109.714q7.428 0 12.856-5.428t5.428-12.856zM877.714 804.572v-256q0-14.856-10.856-25.714t-25.714-10.856h-256q-14.856 0-25.714 10.856t-10.856 25.714 10.856 25.714l78.856 78.856q-84.572 78.286-199.428 78.286-76.572 0-142.856-37.142t-106.286-102.286q-6.286-9.714-30.286-66.856-4.57-13.144-17.144-13.144h-113.714q-7.43 0-12.856 5.428t-5.43 12.856v4q37.144 153.144 154.286 248.286t274.286 95.144q83.428 0 162.286-31.714t140-89.428l74.286 73.714q10.856 10.856 25.714 10.856t25.714-10.856 10.856-25.714z" />
<glyph unicode="&#xf022;" glyph-name="list-alt" d="M219.43 274.286v-36.572q0-7.428-5.43-12.856t-12.856-5.428h-36.57q-7.43 0-12.856 5.428t-5.43 12.856v36.572q0 7.428 5.43 12.856t12.856 5.428h36.57q7.43 0 12.856-5.428t5.43-12.856zM219.43 420.572v-36.572q0-7.428-5.43-12.856t-12.856-5.428h-36.57q-7.43 0-12.856 5.428t-5.43 12.856v36.572q0 7.428 5.43 12.856t12.856 5.428h36.57q7.43 0 12.856-5.428t5.43-12.856zM219.43 566.858v-36.572q0-7.428-5.43-12.856t-12.856-5.428h-36.57q-7.43 0-12.856 5.428t-5.43 12.856v36.572q0 7.428 5.43 12.856t12.856 5.428h36.57q7.43 0 12.856-5.428t5.43-12.856zM877.714 274.286v-36.572q0-7.428-5.428-12.856t-12.856-5.428h-548.572q-7.428 0-12.856 5.428t-5.428 12.856v36.572q0 7.428 5.428 12.856t12.856 5.428h548.572q7.428 0 12.856-5.428t5.428-12.856zM877.714 420.572v-36.572q0-7.428-5.428-12.856t-12.856-5.428h-548.572q-7.428 0-12.856 5.428t-5.428 12.856v36.572q0 7.428 5.428 12.856t12.856 5.428h548.572q7.428 0 12.856-5.428t5.428-12.856zM877.714 566.858v-36.572q0-7.428-5.428-12.856t-12.856-5.428h-548.572q-7.428 0-12.856 5.428t-5.428 12.856v36.572q0 7.428 5.428 12.856t12.856 5.428h548.572q7.428 0 12.856-5.428t5.428-12.856zM950.856 164.572v475.428q0 7.428-5.428 12.856t-12.856 5.428h-841.144q-7.43 0-12.856-5.428t-5.43-12.856v-475.428q0-7.428 5.43-12.856t12.856-5.428h841.144q7.428 0 12.856 5.428t5.428 12.856zM1024 786.286v-621.714q0-37.714-26.856-64.572t-64.572-26.856h-841.144q-37.714 0-64.57 26.856t-26.856 64.572v621.714q0 37.714 26.856 64.572t64.57 26.856h841.144q37.714 0 64.572-26.856t26.856-64.572z" />
<glyph unicode="&#xf023;" glyph-name="lock" horiz-adv-x="658" d="M182.856 512h292.572v109.714q0 60.572-42.856 103.428t-103.428 42.856-103.43-42.856-42.856-103.428v-109.714zM658.286 457.144v-329.142q0-22.856-16-38.856t-38.856-16h-548.572q-22.856 0-38.856 16t-16 38.856v329.142q0 22.858 16 38.858t38.856 16h18.286v109.714q0 105.144 75.43 180.572t180.57 75.428 180.57-75.428 75.428-180.572v-109.714h18.286q22.856 0 38.856-16t16-38.856z" />
<glyph unicode="&#xf024;" glyph-name="flag" d="M182.856 804.572q0-41.144-36.57-62.856v-723.428q0-7.428-5.43-12.856t-12.856-5.428h-36.57q-7.43 0-12.856 5.428t-5.43 12.856v723.428q-36.57 21.714-36.57 62.856 0 30.286 21.43 51.714t51.714 21.43 51.714-21.43 21.43-51.714zM1024 768v-436q0-14.286-7.144-22t-22.572-15.714q-122.856-66.286-210.856-66.286-34.856 0-70.572 12.572t-62 27.428-66 27.428-81.428 12.572q-109.714 0-265.142-83.428-9.714-5.144-18.856-5.144-14.856 0-25.714 10.856t-10.856 25.714v424q0 18.286 17.714 31.428 12 8 45.144 24.572 134.856 68.57 240.57 68.57 61.142 0 114.286-16.57t125.144-50.286q21.714-10.856 50.286-10.856 30.856 0 67.144 12t62.856 26.856 50.286 26.856 31.144 12q14.856 0 25.714-10.856t10.856-25.714z" />
<glyph unicode="&#xf025;" glyph-name="headphones" horiz-adv-x="952" d="M950.856 444.572q0-94.856-34.286-179.428l-11.428-28-105.714-18.856q-12.572-47.428-51.714-78t-89.428-30.572v-18.286q0-8-5.144-13.144t-13.144-5.144h-36.572q-8 0-13.144 5.144t-5.144 13.144v329.144q0 8 5.144 13.144t13.144 5.144h36.572q8 0 13.144-5.144t5.144-13.144v-18.286q40.572 0 74.286-20.286t53.144-54.572l38.856 6.856q16.572 54.286 16.572 110.286 0 84.572-50.286 159.43t-135.144 119.428-180.286 44.572-180.286-44.572-135.144-119.428-50.286-159.428q0-56 16.57-110.286l38.856-6.856q19.43 34.286 53.144 54.572t74.286 20.286v18.286q0 8 5.142 13.144t13.142 5.144h36.572q8 0 13.144-5.144t5.142-13.144v-329.144q0-8-5.142-13.144t-13.144-5.144h-36.572q-8 0-13.144 5.144t-5.142 13.144v18.286q-50.286 0-89.43 30.572t-51.714 78l-105.714 18.856-11.43 28q-34.286 84.572-34.286 179.428 0 86.286 38.286 166.286t102.286 138.572 152 93.428 182.858 34.858 182.856-34.858 152-93.428 102.286-138.572 38.286-166.286z" />
<glyph unicode="&#xf026;" glyph-name="volume-off" horiz-adv-x="440" d="M438.858 749.714v-621.714q0-14.856-10.858-25.714t-25.714-10.856-25.714 10.856l-190.286 190.286h-149.714q-14.856 0-25.714 10.856t-10.856 25.714v219.428q0 14.856 10.856 25.714t25.714 10.858h149.714l190.286 190.286q10.856 10.858 25.714 10.858t25.714-10.858 10.856-25.714z" />
<glyph unicode="&#xf027;" glyph-name="volume-down" horiz-adv-x="658" d="M438.858 749.714v-621.714q0-14.856-10.858-25.714t-25.714-10.856-25.714 10.856l-190.286 190.286h-149.714q-14.856 0-25.714 10.856t-10.856 25.714v219.428q0 14.856 10.856 25.714t25.714 10.858h149.714l190.286 190.286q10.856 10.858 25.714 10.858t25.714-10.858 10.856-25.714zM658.286 438.858q0-43.428-24.286-80.856t-64.286-53.428q-5.714-2.856-14.286-2.856-14.856 0-25.714 10.572t-10.856 26q0 12 6.856 20.286t16.572 14.286 19.428 13.144 16.572 20.286 6.856 32.572-6.856 32.572-16.572 20.286-19.428 13.144-16.572 14.286-6.856 20.286q0 15.428 10.856 26t25.714 10.572q8.572 0 14.286-2.858 40-15.428 64.286-53.142t24.286-81.144z" />
<glyph unicode="&#xf028;" glyph-name="volume-up" horiz-adv-x="952" d="M438.858 749.714v-621.714q0-14.856-10.858-25.714t-25.714-10.856-25.714 10.856l-190.286 190.286h-149.714q-14.856 0-25.714 10.856t-10.856 25.714v219.428q0 14.856 10.856 25.714t25.714 10.858h149.714l190.286 190.286q10.856 10.858 25.714 10.858t25.714-10.858 10.856-25.714zM658.286 438.858q0-43.428-24.286-80.856t-64.286-53.428q-5.714-2.856-14.286-2.856-14.856 0-25.714 10.572t-10.856 26q0 12 6.856 20.286t16.572 14.286 19.428 13.144 16.572 20.286 6.856 32.572-6.856 32.572-16.572 20.286-19.428 13.144-16.572 14.286-6.856 20.286q0 15.428 10.856 26t25.714 10.572q8.572 0 14.286-2.858 40-15.428 64.286-53.142t24.286-81.144zM804.572 438.858q0-87.428-48.572-161.428t-128.572-107.714q-7.428-2.856-14.286-2.856-15.428 0-26.286 10.856t-10.856 25.714q0 22.286 22.286 33.714 32 16.572 43.428 25.144 42.286 30.856 66 77.428t23.714 99.144-23.714 99.144-66 77.428q-11.428 8.572-43.428 25.144-22.286 11.428-22.286 33.714 0 14.858 10.856 25.714t25.714 10.856q7.428 0 14.856-2.856 80-33.714 128.572-107.714t48.572-161.428zM950.856 438.858q0-131.428-72.572-241.428t-193.144-162q-7.428-2.856-14.856-2.856-14.856 0-25.714 10.856t-10.856 25.714q0 20.572 22.286 33.714 4 2.286 12.856 6t12.856 6q26.286 14.286 46.856 29.144 70.286 52 109.714 129.714t39.428 165.144-39.428 165.144-109.714 129.714q-20.572 14.856-46.856 29.144-4 2.286-12.856 6t-12.856 6q-22.286 13.144-22.286 33.714 0 14.858 10.856 25.714t25.714 10.856q7.428 0 14.856-2.856 120.572-52 193.144-162t72.572-241.428z" />
<glyph unicode="&#xf029;" glyph-name="qrcode" horiz-adv-x="806" d="M219.43 292.572v-73.144h-73.144v73.144h73.144zM219.43 731.428v-73.142h-73.144v73.142h73.144zM658.286 731.428v-73.142h-73.144v73.142h73.144zM73.144 146.858h219.43v218.856h-219.43v-218.856zM73.144 585.144h219.43v219.428h-219.43v-219.428zM512 585.144h219.428v219.428h-219.428v-219.428zM365.714 438.858v-365.714h-365.714v365.714h365.714zM658.286 146.286v-73.144h-73.144v73.144h73.144zM804.572 146.286v-73.144h-73.144v73.144h73.144zM804.572 438.858v-219.428h-219.428v73.144h-73.144v-219.428h-73.144v365.714h219.428v-73.144h73.144v73.144h73.144zM365.714 877.714v-365.714h-365.714v365.714h365.714zM804.572 877.714v-365.714h-365.714v365.714h365.714z" />
<glyph unicode="&#xf02a;" glyph-name="barcode" d="M36 73.144h-36v804.572h36v-804.572zM72 73.714h-18.286v804h18.286v-804zM125.714 73.714h-17.714v804h17.714v-804zM215.43 73.714h-17.714v804h17.714v-804zM305.142 73.714h-35.43v804h35.428v-804zM377.142 73.714h-17.714v804h17.714v-804zM413.142 73.714h-17.714v804h17.714v-804zM449.142 73.714h-17.714v804h17.714v-804zM538.856 73.714h-36v804h36v-804zM628.572 73.714h-36v804h36v-804zM700.572 73.714h-36v804h36v-804zM772.572 73.714h-36v804h36v-804zM826.286 73.714h-36v804h36v-804zM934.286 73.714h-53.714v804h53.714v-804zM970.286 73.714h-18.286v804h18.286v-804zM1024 73.144h-36v804.572h36v-804.572z" />
<glyph unicode="&#xf02b;" glyph-name="tag" d="M256 694.858q0 30.286-21.43 51.714t-51.714 21.43-51.714-21.43-21.43-51.714 21.43-51.714 51.714-21.428 51.714 21.428 21.43 51.714zM865.714 365.714q0-30.286-21.144-51.428l-280.572-281.142q-22.286-21.144-52-21.144-30.286 0-51.428 21.144l-408.572 409.142q-21.714 21.144-36.856 57.714t-15.144 66.856v237.714q0 29.714 21.714 51.43t51.43 21.714h237.714q30.286 0 66.856-15.144t58.286-36.856l408.57-408q21.144-22.286 21.144-52z" />
<glyph unicode="&#xf02c;" glyph-name="tags" horiz-adv-x="1098" d="M256 694.858q0 30.286-21.43 51.714t-51.714 21.43-51.714-21.43-21.43-51.714 21.43-51.714 51.714-21.428 51.714 21.428 21.43 51.714zM865.714 365.714q0-30.286-21.144-51.428l-280.572-281.142q-22.286-21.144-52-21.144-30.286 0-51.428 21.144l-408.572 409.142q-21.714 21.144-36.856 57.714t-15.144 66.856v237.714q0 29.714 21.714 51.43t51.43 21.714h237.714q30.286 0 66.856-15.144t58.286-36.856l408.57-408q21.144-22.286 21.144-52zM1085.144 365.714q0-30.286-21.144-51.428l-280.572-281.142q-22.286-21.144-52-21.144-20.572 0-33.714 8t-30.286 25.714l268.572 268.572q21.144 21.144 21.144 51.428 0 29.714-21.144 52l-408.572 408q-21.714 21.714-58.286 36.856t-66.858 15.144h128q30.286 0 66.856-15.144t58.286-36.856l408.572-408q21.144-22.286 21.144-52z" />
<glyph unicode="&#xf02d;" glyph-name="book" horiz-adv-x="952" d="M936.572 677.714q22.856-32.57 10.286-73.714l-157.144-517.714q-10.856-36.572-43.714-61.428t-70-24.856h-527.428q-44 0-84.856 30.572t-56.856 75.144q-13.714 38.286-1.142 72.572 0 2.286 1.714 15.428t2.286 21.144q0.57 4.572-1.714 12.286t-1.714 11.144q1.142 6.286 4.57 12t9.43 13.428 9.428 13.428q13.144 21.714 25.714 52.286t17.144 52.286q1.714 5.714 0.286 17.144t-0.286 16q1.714 6.286 9.714 16t9.714 13.144q12 20.572 24 52.572t14.286 51.428q0.57 5.142-1.43 18.286t0.286 16q2.286 7.428 12.57 17.428t12.57 12.858q10.856 14.856 24.286 48.286t15.714 55.144q0.57 4.572-1.714 14.572t-1.144 15.142q1.144 4.572 5.144 10.286t10.286 13.144 9.714 12q4.57 6.856 9.43 17.428t8.57 20 9.144 20.572 11.144 18.286 15.142 13.428 20.572 6.572 27.144-3.142l-0.572-1.714q21.714 5.144 29.144 5.144h434.856q42.286 0 65.144-32t10.286-74.286l-156.572-517.714q-20.572-68-40.856-87.714t-73.428-19.714h-496.572q-15.43 0-21.714-8.572-6.286-9.144-0.57-24.572 13.714-40 82.286-40h527.428q16.572 0 32 8.856t20 23.714l171.428 564q4 12.572 2.856 32.57 21.714-8.57 33.714-24.57zM328.572 676.572q-2.286-7.428 1.142-12.856t11.428-5.428h347.428q7.428 0 14.572 5.428t9.428 12.856l12 36.57q2.286 7.43-1.144 12.858t-11.428 5.428h-347.428q-7.428 0-14.572-5.428t-9.428-12.858zM281.142 530.286q-2.286-7.428 1.142-12.856t11.428-5.428h347.428q7.428 0 14.572 5.428t9.428 12.856l12 36.572q2.286 7.428-1.144 12.856t-11.428 5.428h-347.428q-7.428 0-14.572-5.428t-9.428-12.856z" />
<glyph unicode="&#xf02e;" glyph-name="bookmark" horiz-adv-x="732" d="M665.144 877.714q13.144 0 25.144-5.144 18.856-7.428 30-23.428t11.144-35.428v-736.572q0-19.428-11.144-35.428t-30-23.428q-10.856-4.572-25.144-4.572-27.428 0-47.428 18.286l-252 242.286-252-242.286q-20.57-18.856-47.43-18.856-13.144 0-25.144 5.144-18.856 7.428-30 23.428t-11.144 35.428v736.572q0 19.428 11.144 35.428t30 23.428q12 5.144 25.144 5.144h598.856z" />
<glyph unicode="&#xf02f;" glyph-name="print" horiz-adv-x="952" d="M219.43 73.144h512v146.286h-512v-146.286zM219.43 438.858h512v219.428h-91.428q-22.856 0-38.856 16t-16 38.856v91.428h-365.714v-365.714zM877.714 402.286q0 14.856-10.856 25.714t-25.714 10.856-25.714-10.856-10.856-25.714 10.856-25.714 25.714-10.856 25.714 10.856 10.856 25.714zM950.856 402.286v-237.714q0-7.428-5.428-12.856t-12.856-5.428h-128v-91.428q0-22.856-16-38.856t-38.856-16h-548.572q-22.856 0-38.856 16t-16 38.856v91.428h-128q-7.43 0-12.856 5.428t-5.43 12.856v237.714q0 45.144 32.286 77.428t77.43 32.286h36.57v310.858q0 22.856 16 38.856t38.856 16h384q22.856 0 50.286-11.428t43.428-27.43l86.856-86.856q16-16 27.428-43.428t11.428-50.286v-146.286h36.572q45.144 0 77.428-32.286t32.286-77.428z" />
<glyph unicode="&#xf030;" glyph-name="camera" horiz-adv-x="1098" d="M548.572 566.858q68 0 116.286-48.286t48.286-116.286-48.286-116.286-116.286-48.286-116.286 48.286-48.286 116.286 48.286 116.286 116.286 48.286zM950.856 804.572q60.572 0 103.43-42.856t42.856-103.428v-512q0-60.572-42.856-103.428t-103.428-42.856h-804.572q-60.57 0-103.43 42.856t-42.856 103.428v512q0 60.572 42.856 103.428t103.43 42.856h128l29.144 77.714q10.856 28 39.714 48.286t59.142 20.286h292.572q30.286 0 59.144-20.286t39.714-48.286l29.144-77.714h128zM548.572 146.286q105.714 0 180.856 75.144t75.144 180.856-75.144 180.856-180.856 75.144-180.856-75.144-75.144-180.856 75.144-180.856 180.856-75.144z" />
<glyph unicode="&#xf031;" glyph-name="font" horiz-adv-x="952" d="M414.286 631.428l-97.142-257.142q18.856 0 78-1.144t91.714-1.144q10.858 0 32.57 1.144-49.714 144.572-105.144 258.286zM0 0l1.144 45.144q13.144 4 32 7.144t32.57 6 28.286 8.286 25.43 16.572 17.714 28.856l135.43 352 160 413.714h73.144q4.572-8 6.286-12l117.144-274.286q18.856-44.572 60.572-147.144t65.144-156.856q8.572-19.428 33.144-82.572t41.144-96.286q11.428-25.714 20-32.572 10.856-8.572 50.286-16.856t48-11.714q3.428-21.714 3.428-32.572 0-2.286-0.286-7.428t-0.286-7.428q-36 0-108.572 4.572t-109.144 4.572q-43.428 0-122.856-4t-101.714-4.572q0 24.572 2.286 44.572l74.856 16q0.572 0 7.144 1.428t8.856 2 8.286 2.572 8.572 3.714 6.286 4.572 5.144 6.286 1.428 8q0 9.144-17.714 55.144t-41.144 101.428-24 57.144l-257.142 1.144q-14.858-33.144-43.714-111.714t-28.856-92.856q0-12.572 8-21.428t24.856-14 27.714-7.714 32.57-4.856 23.428-2.286q0.572-10.856 0.572-33.144 0-5.144-1.142-15.428-33.142 0-99.714 5.714t-99.714 5.714q-4.57 0-15.144-2.286t-12.286-2.286q-45.714-8-107.43-8z" />
<glyph unicode="&#xf032;" glyph-name="bold" horiz-adv-x="806" d="M317.142 81.714q42.286-18.286 80-18.286 214.858 0 214.858 191.428 0 65.144-23.428 102.856-15.428 25.144-35.144 42.286t-38.572 26.572-46 14.286-48 6-54 1.144q-41.714 0-57.714-5.714 0-30.286-0.286-90.856t-0.286-90.286q0-4.572-0.572-38.572t-0.286-55.144 2.572-47.714 6.858-38zM309.142 508q24-4 62.286-4 46.856 0 81.714 7.428t62.858 25.428 42.572 51.144 14.572 81.144q0 40-16.572 70t-45.144 46.856-61.714 24.856-70.858 8q-28.572 0-74.286-7.428 0-28.572 2.286-86.286t2.286-86.856q0-15.428-0.286-45.714t-0.286-45.144q0-26.286 0.572-39.428zM0 0l1.144 53.714q8.57 2.286 48.57 9.144t60.57 15.428q4 6.856 7.144 15.428t4.856 19.144 3.144 18.572 1.714 21.428 0.286 19.428v37.428q0 561.144-12.57 585.714-2.286 4.572-12.57 8.286t-25.43 6.286-28.286 4-27.714 2.57-17.428 1.714l-2.286 47.428q56 1.144 194.286 6.572t213.144 5.428q13.144 0 39.144-0.286t38.572-0.286q40 0 78-7.428t73.428-24 61.714-40.572 42.286-59.714 16-78.572q0-29.714-9.428-54.572t-22.286-41.144-36.856-32.856-41.714-25.714-48-22.856q88-20 146.572-76.572t58.572-141.714q0-57.144-20-102.572t-53.428-74.572-78.856-48.856-93.428-27.714-100.572-8q-25.144 0-75.428 1.714t-75.428 1.714q-60.57 0-175.43-6.286t-132-6.856z" />
<glyph unicode="&#xf033;" glyph-name="italic" horiz-adv-x="586" d="M0 1.144l9.714 48.572q3.43 1.144 46.57 12.286t63.714 21.428q16 20 23.43 57.714 0.57 4 35.43 165.144t65.144 310.572 29.714 169.428v14.286q-13.714 7.428-31.144 10.57t-39.714 4.572-33.144 3.144l10.856 58.856q18.856-1.144 68.57-3.714t85.43-4 68.856-1.428q27.428 0 56.286 1.428t69.142 4 56.286 3.714q-2.856-22.286-10.856-50.856-17.144-5.714-58-16.286t-62-19.142q-4.572-10.858-8-24.286t-5.142-22.856-4.286-26-3.714-24q-15.428-84.572-50-239.714t-44.286-203.142q-1.142-5.144-7.428-33.144t-11.428-51.428-9.144-47.714-3.428-32.856l0.572-10.286q9.714-2.286 105.714-17.714-1.714-25.144-9.142-56.572-6.286 0-18.572-0.856t-18.572-0.856q-16.572 0-49.714 5.714t-49.142 5.714q-78.856 1.144-117.714 1.144-29.144 0-81.714-5.144t-69.144-6.286z" />
<glyph unicode="&#xf034;" glyph-name="text-height" d="M996.572 146.286q18.856 0 24-10.572t-6.286-25.428l-72-92.572q-11.428-14.856-28-14.856t-28 14.856l-72 92.572q-11.428 14.856-6.286 25.428t24 10.572h45.714v585.144h-45.714q-18.856 0-24 10.572t6.286 25.428l72 92.572q11.428 14.856 28 14.856t28-14.856l72-92.572q11.428-14.858 6.286-25.428t-24-10.572h-45.714v-585.144h45.714zM46.286 877.144l30.856-15.428q6.856-2.856 120.57-2.856 25.144 0 75.43 1.144t75.428 1.142q20.572 0 61.428-0.286t61.428-0.286h167.428q3.428 0 12-0.286t11.714 0 9.144 1.714 10 5.144 8.572 10l24 0.572q2.286 0 8-0.286t8-0.286q1.144-64 1.144-192 0-45.714-2.856-62.286-22.286-8-38.856-10.286-14.286 25.144-30.856 73.144-1.714 5.142-6.286 27.428t-8.286 42-4.286 20.286q-3.428 4.572-6.856 7.144t-8.856 3.43-7.428 1.428-10.286 0.286-9.428-0.286q-9.714 0-38 0.286t-42.572 0.286-36.572-1.144-40.572-3.428q-5.142-46.286-4.572-77.714 0-53.714 1.142-221.714t1.142-260q0-9.144-1.428-40.856t0-52.286 7.142-39.428q22.858-12 70.858-24.286t68.572-21.428q2.856-22.856 2.856-28.572 0-8-1.714-16.572l-19.428-0.572q-43.428-1.144-124.572 4.572t-118.286 5.714q-28.572 0-86.286-5.144t-86.856-5.144q-1.714 29.144-1.714 29.714v5.144q9.714 15.428 35.144 24.572t56.286 16.572 44.57 15.428q10.856 24 10.856 218.856 0 57.714-1.714 173.144t-1.714 173.144v66.856q0 1.144 0.286 8.856t0.286 14.286-0.572 14.572-1.714 13.714-2.858 8q-6.286 6.856-92.57 6.856-18.856 0-53.144-6.856t-45.714-14.856q-10.856-7.43-19.43-41.43t-18-63.428-24.286-30.572q-24 14.858-32 25.144v218.856z" />
<glyph unicode="&#xf035;" glyph-name="text-width" d="M46.286 877.144l30.856-15.428q6.856-2.856 120.57-2.856 25.144 0 75.43 1.144t75.428 1.142q40 0 140.856 0.572t174 0.286 141.144-2.572q18.856-0.572 32 17.714l24 0.572q2.286 0 8-0.286t8-0.286q1.144-64 1.144-192 0-45.714-2.856-62.286-22.286-8-38.856-10.286-14.286 25.144-30.856 73.144-1.714 5.142-6.286 27.144t-8.572 42-4 20.57q-5.714 7.43-15.428 10.856-2.856 1.144-37.714 1.144-17.144 0-53.144 0.572t-58.856 0.572-53.714-1.144-54.856-4q-5.142-46.286-4.572-77.714l0.572-86.858v29.714q0-31.428 0.572-88t0.858-102.856 0.286-87.428q0-9.144-1.428-40.856t0-52.286 7.144-39.428q22.856-12 70.856-24.286t68.572-21.428q2.856-22.856 2.856-28.572 0-8-1.714-16.572l-19.428-0.572q-43.428-1.144-124.572 4.572t-118.286 5.714q-28.572 0-86.286-5.144t-86.856-5.144q-1.714 29.144-1.714 29.714v5.144q9.714 15.428 35.144 24.572t56.286 16.572 44.57 15.428q4 9.144 6.572 42.286t3.428 83.144 0.858 88.572-0.286 87.714-0.286 50.858q0 4-1.428 12.286t-1.428 12.858q0 4 0.286 25.144t0.572 41.714 0 43.714-1.714 38.572-3.714 18.286q-6.286 6.856-92.572 6.856-23.43 0-93.144-7.714t-78.856-14q-10.856-6.858-19.43-40.858t-18-63.714-24.286-30.856q-24 14.856-32 25.144v218.856zM748.572 144.572q6.856 0 24-11.144t32.856-23.714 34-28 20.572-17.144q14.856-12 14.856-28t-14.856-28q-2.286-1.714-20.572-17.144t-34-28-32.856-23.714-24-11.144q-7.428 0-11.714 6t-5.714 16.286-1.428 19.144 0.856 18.856 0.856 11.144h-585.144q0-1.144 0.856-11.144t0.856-18.856-1.43-19.144-5.714-16.286-11.714-6q-6.856 0-24 11.144t-32.856 23.714-34 28-20.572 17.144q-14.856 12-14.856 28t14.856 28q2.286 1.714 20.572 17.144t34 28 32.856 23.714 24 11.144q7.43 0 11.714-6t5.714-16.286 1.43-19.144-0.856-18.856-0.856-11.144h585.144q0 1.144-0.856 11.144t-0.856 18.856 1.428 19.144 5.714 16.286 11.714 6z" />
<glyph unicode="&#xf036;" glyph-name="align-left" d="M1024 182.858v-73.144q0-14.856-10.856-25.714t-25.714-10.856h-950.856q-14.856 0-25.714 10.856t-10.856 25.714v73.144q0 14.856 10.856 25.714t25.714 10.856h950.856q14.856 0 25.714-10.856t10.856-25.714zM804.572 402.286v-73.144q0-14.856-10.856-25.714t-25.714-10.856h-731.428q-14.856 0-25.714 10.856t-10.856 25.714v73.144q0 14.856 10.856 25.714t25.714 10.856h731.428q14.856 0 25.714-10.856t10.856-25.714zM950.856 621.714v-73.142q0-14.856-10.856-25.714t-25.714-10.856h-877.714q-14.856 0-25.714 10.856t-10.856 25.714v73.144q0 14.856 10.856 25.714t25.714 10.858h877.714q14.856 0 25.714-10.856t10.856-25.714zM731.428 841.144v-73.142q0-14.858-10.856-25.714t-25.714-10.856h-658.286q-14.856 0-25.714 10.856t-10.856 25.714v73.142q0 14.858 10.856 25.714t25.714 10.856h658.286q14.856 0 25.714-10.856t10.856-25.714z" />
<glyph unicode="&#xf037;" glyph-name="align-center" d="M1024 182.858v-73.144q0-14.856-10.856-25.714t-25.714-10.856h-950.856q-14.856 0-25.714 10.856t-10.856 25.714v73.144q0 14.856 10.856 25.714t25.714 10.856h950.856q14.856 0 25.714-10.856t10.856-25.714zM804.572 402.286v-73.144q0-14.856-10.856-25.714t-25.714-10.856h-512q-14.856 0-25.714 10.856t-10.856 25.714v73.144q0 14.856 10.856 25.714t25.714 10.856h512q14.856 0 25.714-10.856t10.856-25.714zM950.856 621.714v-73.142q0-14.856-10.856-25.714t-25.714-10.856h-804.572q-14.856 0-25.714 10.856t-10.856 25.714v73.144q0 14.856 10.856 25.714t25.714 10.858h804.572q14.856 0 25.714-10.856t10.856-25.714zM731.428 841.144v-73.142q0-14.858-10.856-25.714t-25.714-10.856h-365.714q-14.858 0-25.714 10.856t-10.856 25.714v73.142q0 14.858 10.856 25.714t25.714 10.856h365.714q14.856 0 25.714-10.856t10.856-25.714z" />
<glyph unicode="&#xf038;" glyph-name="align-right" d="M1024 182.858v-73.144q0-14.856-10.856-25.714t-25.714-10.856h-950.856q-14.856 0-25.714 10.856t-10.856 25.714v73.144q0 14.856 10.856 25.714t25.714 10.856h950.856q14.856 0 25.714-10.856t10.856-25.714zM1024 402.286v-73.144q0-14.856-10.856-25.714t-25.714-10.856h-731.428q-14.856 0-25.714 10.856t-10.856 25.714v73.144q0 14.856 10.856 25.714t25.714 10.856h731.428q14.856 0 25.714-10.856t10.856-25.714zM1024 621.714v-73.142q0-14.856-10.856-25.714t-25.714-10.856h-877.714q-14.856 0-25.714 10.856t-10.856 25.714v73.144q0 14.856 10.856 25.714t25.714 10.858h877.714q14.856 0 25.714-10.856t10.856-25.714zM1024 841.144v-73.142q0-14.858-10.856-25.714t-25.714-10.856h-658.286q-14.856 0-25.714 10.856t-10.858 25.714v73.142q0 14.858 10.856 25.714t25.714 10.856h658.286q14.856 0 25.714-10.856t10.856-25.714z" />
<glyph unicode="&#xf039;" glyph-name="align-justify" d="M1024 182.858v-73.144q0-14.856-10.856-25.714t-25.714-10.856h-950.856q-14.856 0-25.714 10.856t-10.856 25.714v73.144q0 14.856 10.856 25.714t25.714 10.856h950.856q14.856 0 25.714-10.856t10.856-25.714zM1024 402.286v-73.144q0-14.856-10.856-25.714t-25.714-10.856h-950.856q-14.856 0-25.714 10.856t-10.856 25.714v73.144q0 14.856 10.856 25.714t25.714 10.856h950.856q14.856 0 25.714-10.856t10.856-25.714zM1024 621.714v-73.142q0-14.856-10.856-25.714t-25.714-10.856h-950.856q-14.856 0-25.714 10.856t-10.856 25.714v73.144q0 14.856 10.856 25.714t25.714 10.858h950.856q14.856 0 25.714-10.856t10.856-25.714zM1024 841.144v-73.142q0-14.858-10.856-25.714t-25.714-10.856h-950.856q-14.856 0-25.714 10.856t-10.856 25.714v73.142q0 14.858 10.856 25.714t25.714 10.856h950.856q14.856 0 25.714-10.856t10.856-25.714z" />
<glyph unicode="&#xf03a;" glyph-name="list" d="M146.286 201.144v-109.714q0-7.428-5.43-12.856t-12.856-5.428h-109.714q-7.43 0-12.856 5.428t-5.43 12.856v109.714q0 7.428 5.43 12.856t12.856 5.428h109.714q7.43 0 12.856-5.428t5.43-12.856zM146.286 420.572v-109.714q0-7.428-5.43-12.856t-12.856-5.428h-109.714q-7.43 0-12.856 5.428t-5.43 12.856v109.714q0 7.428 5.43 12.856t12.856 5.428h109.714q7.43 0 12.856-5.428t5.43-12.856zM146.286 640v-109.714q0-7.428-5.43-12.856t-12.856-5.428h-109.714q-7.43 0-12.856 5.428t-5.43 12.856v109.714q0 7.428 5.43 12.858t12.856 5.428h109.714q7.43 0 12.856-5.428t5.43-12.856zM1024 201.144v-109.714q0-7.428-5.428-12.856t-12.856-5.428h-768q-7.43 0-12.856 5.428t-5.43 12.856v109.714q0 7.428 5.43 12.856t12.856 5.428h768q7.428 0 12.856-5.428t5.428-12.856zM146.286 859.428v-109.714q0-7.428-5.43-12.856t-12.856-5.43h-109.714q-7.43 0-12.856 5.43t-5.43 12.856v109.714q0 7.43 5.43 12.858t12.856 5.428h109.714q7.43 0 12.856-5.428t5.43-12.858zM1024 420.572v-109.714q0-7.428-5.428-12.856t-12.856-5.428h-768q-7.43 0-12.856 5.428t-5.43 12.856v109.714q0 7.428 5.43 12.856t12.856 5.428h768q7.428 0 12.856-5.428t5.428-12.856zM1024 640v-109.714q0-7.428-5.428-12.856t-12.856-5.428h-768q-7.43 0-12.856 5.428t-5.43 12.856v109.714q0 7.428 5.43 12.858t12.856 5.428h768q7.428 0 12.856-5.428t5.428-12.856zM1024 859.428v-109.714q0-7.428-5.428-12.856t-12.856-5.43h-768q-7.43 0-12.856 5.43t-5.43 12.856v109.714q0 7.43 5.43 12.858t12.856 5.428h768q7.428 0 12.856-5.428t5.428-12.858z" />
<glyph unicode="&#xf03b;" glyph-name="dedent" d="M219.43 640v-329.142q0-7.428-5.43-12.856t-12.856-5.428q-8 0-13.144 5.144l-164.57 164.572q-5.144 5.142-5.144 13.144t5.144 13.144l164.57 164.572q5.144 5.142 13.144 5.142 7.43 0 12.856-5.428t5.43-12.856zM1024 201.144v-109.714q0-7.428-5.428-12.856t-12.856-5.428h-987.428q-7.43 0-12.856 5.428t-5.43 12.856v109.714q0 7.428 5.43 12.856t12.856 5.428h987.428q7.428 0 12.856-5.428t5.428-12.856zM1024 420.572v-109.714q0-7.428-5.428-12.856t-12.856-5.428h-621.714q-7.428 0-12.856 5.428t-5.428 12.856v109.714q0 7.428 5.428 12.856t12.856 5.428h621.714q7.428 0 12.856-5.428t5.428-12.856zM1024 640v-109.714q0-7.428-5.428-12.856t-12.856-5.428h-621.714q-7.428 0-12.856 5.428t-5.428 12.856v109.714q0 7.428 5.428 12.858t12.856 5.428h621.714q7.428 0 12.856-5.428t5.428-12.856zM1024 859.428v-109.714q0-7.428-5.428-12.856t-12.856-5.43h-987.428q-7.43 0-12.856 5.43t-5.43 12.856v109.714q0 7.43 5.43 12.858t12.856 5.428h987.428q7.428 0 12.856-5.428t5.428-12.858z" />
<glyph unicode="&#xf03c;" glyph-name="indent" d="M201.144 475.428q0-8-5.144-13.144l-164.57-164.572q-5.144-5.144-13.144-5.144-7.43 0-12.856 5.428t-5.43 12.856v329.142q0 7.428 5.43 12.858t12.856 5.428q8 0 13.144-5.144l164.57-164.57q5.144-5.144 5.144-13.144zM1024 201.144v-109.714q0-7.428-5.428-12.856t-12.856-5.428h-987.428q-7.43 0-12.856 5.428t-5.43 12.856v109.714q0 7.428 5.43 12.856t12.856 5.428h987.428q7.428 0 12.856-5.428t5.428-12.856zM1024 420.572v-109.714q0-7.428-5.428-12.856t-12.856-5.428h-621.714q-7.428 0-12.856 5.428t-5.428 12.856v109.714q0 7.428 5.428 12.856t12.856 5.428h621.714q7.428 0 12.856-5.428t5.428-12.856zM1024 640v-109.714q0-7.428-5.428-12.856t-12.856-5.428h-621.714q-7.428 0-12.856 5.428t-5.428 12.856v109.714q0 7.428 5.428 12.858t12.856 5.428h621.714q7.428 0 12.856-5.428t5.428-12.856zM1024 859.428v-109.714q0-7.428-5.428-12.856t-12.856-5.43h-987.428q-7.43 0-12.856 5.43t-5.43 12.856v109.714q0 7.43 5.43 12.858t12.856 5.428h987.428q7.428 0 12.856-5.428t5.428-12.858z" />
<glyph unicode="&#xf03d;" glyph-name="video-camera" d="M1024 749.714v-621.714q0-24-22.286-33.714-7.428-2.856-14.286-2.856-15.428 0-25.714 10.856l-230.286 230.286v-94.856q0-68-48.286-116.286t-116.286-48.286h-402.286q-68 0-116.286 48.286t-48.286 116.286v402.286q0 68 48.286 116.286t116.286 48.286h402.286q68 0 116.286-48.286t48.286-116.286v-94.286l230.286 229.714q10.286 10.856 25.714 10.856 6.856 0 14.286-2.856 22.286-9.714 22.286-33.714z" />
<glyph unicode="&#xf03e;" glyph-name="image" horiz-adv-x="1098" d="M365.714 621.714q0-45.714-32-77.714t-77.714-32-77.714 32-32 77.714 32 77.714 77.714 32 77.714-32 32-77.714zM950.856 402.286v-256h-804.572v109.714l182.856 182.856 91.428-91.428 292.572 292.572zM1005.714 804.572h-914.286q-7.43 0-12.856-5.428t-5.43-12.856v-694.856q0-7.428 5.43-12.856t12.856-5.428h914.286q7.428 0 12.856 5.428t5.428 12.856v694.856q0 7.428-5.428 12.856t-12.856 5.428zM1097.144 786.286v-694.856q0-37.714-26.856-64.572t-64.572-26.856h-914.286q-37.714 0-64.57 26.856t-26.856 64.572v694.856q0 37.714 26.856 64.572t64.57 26.856h914.286q37.714 0 64.572-26.856t26.856-64.572z" />
<glyph unicode="&#xf040;" glyph-name="pencil" d="M207.43 73.144l52 52-134.286 134.286-52-52v-61.144h73.144v-73.144h61.144zM506.286 603.428q0 12.572-12.572 12.572-5.714 0-9.714-4l-309.714-309.714q-4-4-4-9.714 0-12.572 12.57-12.572 5.714 0 9.714 4l309.714 309.714q4 4 4 9.714zM475.428 713.144l237.714-237.714-475.428-475.428h-237.714v237.714zM865.714 658.286q0-30.286-21.144-51.428l-94.856-94.856-237.714 237.714 94.856 94.286q20.572 21.714 51.428 21.714 30.286 0 52-21.714l134.286-133.714q21.144-22.286 21.144-52z" />
<glyph unicode="&#xf041;" glyph-name="map-marker" horiz-adv-x="586" d="M438.858 585.144q0 60.572-42.858 103.43t-103.428 42.856-103.43-42.856-42.856-103.428 42.856-103.428 103.43-42.856 103.428 42.856 42.856 103.428zM585.144 585.144q0-62.286-18.856-102.286l-208-442.286q-9.144-18.856-27.144-29.714t-38.572-10.856-38.57 10.856-26.57 29.714l-208.57 442.286q-18.856 40-18.856 102.286 0 121.142 85.714 206.856t206.856 85.714 206.856-85.714 85.714-206.856z" />
<glyph unicode="&#xf042;" glyph-name="adjust" d="M438.858 128v621.714q-84.57 0-156-41.714t-113.144-113.142-41.714-156 41.714-156 113.144-113.144 156-41.714zM877.714 438.858q0-119.428-58.856-220.286t-159.714-159.714-220.286-58.856-220.286 58.856-159.714 159.714-58.856 220.286 58.856 220.286 159.714 159.714 220.286 58.856 220.286-58.856 159.714-159.714 58.856-220.286z" />
<glyph unicode="&#xf043;" glyph-name="tint" horiz-adv-x="586" d="M292.572 292.572q0 20.572-11.428 39.428-0.572 0.572-8.856 12.856t-14.572 21.714-14.286 25.144-12 28.856q-2.286 9.144-12 9.144t-12-9.144q-4-13.144-12-28.856t-14.286-25.144-14.57-21.714-8.856-12.856q-11.43-18.856-11.43-39.428 0-30.286 21.43-51.714t51.714-21.428 51.714 21.428 21.428 51.714zM585.144 365.714q0-121.144-85.714-206.856t-206.858-85.714-206.856 85.714-85.714 206.856q0 82.856 46.286 157.144 3.43 5.142 35.714 51.714t57.714 86.286 56.856 101.714 47.43 115.144q5.144 17.144 19.43 26.856t29.142 9.714 29.428-9.714 19.144-26.856q16-53.144 47.428-115.144t56.856-101.714 57.714-86.286 35.714-51.714q46.286-72.572 46.286-157.144z" />
<glyph unicode="&#xf044;" glyph-name="edit" d="M507.428 274.286l66.286 66.286-86.856 86.856-66.286-66.286v-32h54.858v-54.856h32zM758.856 685.714q-9.144 9.144-18.856-0.572l-200-200q-9.714-9.714-0.572-18.856t18.856 0.572l200 200q9.714 9.714 0.572 18.856zM804.572 346.286v-108.572q0-68-48.286-116.286t-116.286-48.286h-475.428q-68 0-116.286 48.286t-48.286 116.286v475.428q0 68 48.286 116.286t116.286 48.286h475.428q36 0 66.856-14.286 8.572-4 10.286-13.144 1.714-9.714-5.144-16.57l-28-28q-8-8-18.286-4.572-13.144 3.428-25.714 3.428h-475.428q-37.714 0-64.57-26.856t-26.856-64.572v-475.428q0-37.714 26.856-64.572t64.57-26.856h475.428q37.714 0 64.572 26.856t26.856 64.572v72q0 7.428 5.144 12.572l36.572 36.572q8.572 8.572 20 4t11.428-16.572zM749.714 768l164.572-164.572-384-384h-164.572v164.572zM1003.428 692.572l-52.572-52.57-164.572 164.57 52.572 52.572q16 16 38.856 16t38.856-16l86.856-86.856q16-16 16-38.856t-16-38.856z" />
<glyph unicode="&#xf045;" glyph-name="share-square-o" horiz-adv-x="952" d="M804.572 385.714v-148q0-68-48.286-116.286t-116.286-48.286h-475.428q-68 0-116.286 48.286t-48.286 116.286v475.428q0 68 48.286 116.286t116.286 48.286h145.714q7.428 0 12.858-5.43t5.428-12.856q0-15.428-14.856-18.286-44-14.858-76-34.286-5.714-2.286-9.144-2.286h-64q-37.714 0-64.57-26.856t-26.856-64.572v-475.428q0-37.714 26.856-64.572t64.57-26.856h475.428q37.714 0 64.572 26.856t26.856 64.572v122.286q0 10.856 10.286 16.572 16 7.428 30.856 21.144 9.144 9.144 20 4.572 12-5.144 12-16.572zM940 669.144l-219.428-219.428q-10.286-10.856-25.714-10.856-6.856 0-14.286 2.856-22.286 9.714-22.286 33.714v109.714h-91.428q-184.572 0-250.286-74.856-68-78.286-42.286-270.286 1.714-13.144-11.428-19.428-4.572-1.144-6.856-1.144-9.144 0-14.856 7.428-5.714 8-12 17.714t-22.57 39.144-28.286 56.856-22 65.144-10 69.714q0 28 2 52t8 51.43 16 50.286 26.856 46.572 39.144 42.286 54 35.144 71.144 27.714 91.144 17.428 112.286 6.286h91.428v109.714q0 24 22.286 33.714 7.428 2.858 14.286 2.858 14.856 0 25.714-10.858l219.428-219.428q10.856-10.856 10.856-25.714t-10.856-25.714z" />
<glyph unicode="&#xf046;" glyph-name="check-square-o" horiz-adv-x="952" d="M804.572 419.428v-181.714q0-68-48.286-116.286t-116.286-48.286h-475.428q-68 0-116.286 48.286t-48.286 116.286v475.428q0 68 48.286 116.286t116.286 48.286h475.428q36 0 66.856-14.286 8.572-4 10.286-13.144 1.714-9.714-5.144-16.57l-28-28q-5.714-5.714-13.144-5.714-1.714 0-5.144 1.144-13.144 3.428-25.714 3.428h-475.428q-37.714 0-64.57-26.856t-26.856-64.572v-475.428q0-37.714 26.856-64.572t64.57-26.856h475.428q37.714 0 64.572 26.856t26.856 64.572v145.144q0 7.428 5.144 12.572l36.572 36.572q5.714 5.714 13.144 5.714 3.428 0 6.856-1.714 11.428-4.572 11.428-16.572zM936.572 698.858l-465.142-465.144q-13.714-13.714-32.57-13.714t-32.572 13.714l-245.714 245.714q-13.714 13.714-13.714 32.572t13.714 32.572l62.856 62.856q13.714 13.714 32.57 13.714t32.57-13.714l150.286-150.286 369.714 369.714q13.714 13.714 32.572 13.714t32.572-13.714l62.856-62.858q13.714-13.714 13.714-32.57t-13.714-32.572z" />
<glyph unicode="&#xf047;" glyph-name="arrows" d="M1024 438.858q0-14.856-10.856-25.714l-146.286-146.286q-10.856-10.856-25.714-10.856t-25.714 10.856-10.856 25.714v73.144h-219.428v-219.428h73.144q14.856 0 25.714-10.856t10.856-25.714-10.856-25.714l-146.286-146.286q-10.856-10.856-25.714-10.856t-25.714 10.856l-146.286 146.286q-10.856 10.856-10.856 25.714t10.856 25.714 25.714 10.856h73.142v219.428h-219.43v-73.144q0-14.856-10.856-25.714t-25.714-10.856-25.714 10.856l-146.286 146.286q-10.856 10.856-10.856 25.714t10.856 25.714l146.286 146.286q10.856 10.856 25.714 10.856t25.714-10.856 10.856-25.714v-73.142h219.43v219.428h-73.144q-14.856 0-25.714 10.856t-10.858 25.714 10.856 25.714l146.286 146.286q10.858 10.856 25.714 10.856t25.714-10.856l146.286-146.286q10.856-10.856 10.856-25.714t-10.856-25.714-25.714-10.856h-73.144v-219.428h219.428v73.144q0 14.856 10.856 25.714t25.714 10.858 25.714-10.856l146.286-146.286q10.856-10.856 10.856-25.714z" />
<glyph unicode="&#xf048;" glyph-name="step-backward" horiz-adv-x="586" d="M559.428 870.286q10.856 10.856 18.286 7.428t7.428-18.286v-841.144q0-14.856-7.428-18.286t-18.286 7.428l-405.714 405.714q-5.144 5.144-7.43 10.856v-387.428q0-14.856-10.856-25.714t-25.714-10.856h-73.144q-14.856 0-25.714 10.856t-10.856 25.714v804.572q0 14.856 10.856 25.714t25.714 10.858h73.144q14.856 0 25.714-10.858t10.856-25.714v-387.428q2.286 6.286 7.43 10.856z" />
<glyph unicode="&#xf049;" glyph-name="fast-backward" d="M998.286 870.286q10.856 10.856 18.286 7.428t7.43-18.286v-841.144q0-14.856-7.428-18.286t-18.286 7.428l-405.714 405.714q-5.144 5.144-7.428 10.856v-405.714q0-14.856-7.428-18.286t-18.286 7.428l-405.714 405.714q-5.144 5.144-7.43 10.856v-387.428q0-14.856-10.856-25.714t-25.714-10.856h-73.144q-14.856 0-25.714 10.856t-10.856 25.714v804.572q0 14.856 10.856 25.714t25.714 10.858h73.144q14.856 0 25.714-10.858t10.856-25.714v-387.428q2.286 6.286 7.43 10.856l405.714 405.714q10.856 10.856 18.286 7.43t7.428-18.286v-405.714q2.286 6.286 7.428 10.856z" />
<glyph unicode="&#xf04a;" glyph-name="backward" horiz-adv-x="952" d="M925.144 870.286q10.856 10.856 18.286 7.428t7.428-18.286v-841.144q0-14.856-7.428-18.286t-18.286 7.428l-405.714 405.714q-4.572 5.144-7.428 10.856v-405.714q0-14.856-7.428-18.286t-18.286 7.428l-405.714 405.714q-10.856 10.856-10.856 25.714t10.856 25.714l405.714 405.714q10.858 10.858 18.286 7.428t7.428-18.286v-405.714q2.856 6.286 7.428 10.856z" />
<glyph unicode="&#xf04b;" glyph-name="play" horiz-adv-x="806" d="M790.856 421.144l-758.856-421.714q-13.144-7.428-22.572-1.714t-9.43 20.572v841.144q0 14.856 9.43 20.57t22.572-1.714l758.856-421.714q13.144-7.428 13.144-17.714t-13.144-17.714z" />
<glyph unicode="&#xf04c;" glyph-name="pause" d="M877.714 841.144v-804.572q0-14.856-10.856-25.714t-25.714-10.856h-292.572q-14.856 0-25.714 10.856t-10.856 25.714v804.572q0 14.856 10.856 25.714t25.714 10.858h292.572q14.856 0 25.714-10.858t10.856-25.714zM365.714 841.144v-804.572q0-14.856-10.858-25.714t-25.714-10.856h-292.572q-14.856 0-25.714 10.856t-10.856 25.714v804.572q0 14.856 10.856 25.714t25.714 10.858h292.572q14.858 0 25.714-10.858t10.856-25.714z" />
<glyph unicode="&#xf04d;" glyph-name="stop" d="M877.714 841.144v-804.572q0-14.856-10.856-25.714t-25.714-10.856h-804.572q-14.856 0-25.714 10.856t-10.856 25.714v804.572q0 14.856 10.856 25.714t25.714 10.858h804.572q14.856 0 25.714-10.858t10.856-25.714z" />
<glyph unicode="&#xf04e;" glyph-name="forward" horiz-adv-x="952" d="M25.714 7.428q-10.856-10.856-18.286-7.428t-7.43 18.286v841.144q0 14.856 7.43 18.286t18.286-7.428l405.714-405.714q4.572-4.572 7.428-10.856v405.714q0 14.856 7.428 18.286t18.286-7.43l405.714-405.714q10.856-10.856 10.856-25.714t-10.856-25.714l-405.714-405.714q-10.858-10.856-18.286-7.428t-7.428 18.286v405.714q-2.858-5.714-7.428-10.856z" />
<glyph unicode="&#xf050;" glyph-name="fast-forward" d="M25.714 7.428q-10.856-10.856-18.286-7.428t-7.43 18.286v841.144q0 14.856 7.43 18.286t18.286-7.428l405.714-405.714q4.572-4.572 7.428-10.856v405.714q0 14.856 7.428 18.286t18.286-7.43l405.714-405.714q4.572-4.572 7.428-10.856v387.428q0 14.856 10.856 25.714t25.714 10.858h73.144q14.856 0 25.714-10.858t10.856-25.714v-804.572q0-14.856-10.856-25.714t-25.714-10.856h-73.144q-14.856 0-25.714 10.856t-10.856 25.714v387.428q-2.856-5.714-7.428-10.856l-405.714-405.714q-10.858-10.856-18.286-7.428t-7.428 18.286v405.714q-2.858-5.714-7.428-10.856z" />
<glyph unicode="&#xf051;" glyph-name="step-forward" horiz-adv-x="586" d="M25.714 7.428q-10.856-10.856-18.286-7.428t-7.43 18.286v841.144q0 14.856 7.43 18.286t18.286-7.428l405.714-405.714q4.572-4.572 7.428-10.856v387.428q0 14.856 10.856 25.714t25.714 10.858h73.142q14.856 0 25.714-10.858t10.856-25.714v-804.572q0-14.856-10.856-25.714t-25.714-10.856h-73.144q-14.856 0-25.714 10.856t-10.858 25.714v387.428q-2.858-5.714-7.428-10.856z" />
<glyph unicode="&#xf052;" glyph-name="eject" horiz-adv-x="880" d="M8 391.428l405.714 405.714q10.858 10.858 25.714 10.858t25.714-10.858l405.714-405.714q10.856-10.856 7.428-18.286t-18.286-7.428h-841.144q-14.856 0-18.286 7.428t7.43 18.286zM841.714 73.144h-804.572q-14.856 0-25.714 10.856t-10.856 25.714v146.286q0 14.856 10.856 25.714t25.714 10.856h804.572q14.856 0 25.714-10.856t10.856-25.714v-146.286q0-14.856-10.856-25.714t-25.714-10.856z" />
<glyph unicode="&#xf053;" glyph-name="chevron-left" horiz-adv-x="732" d="M669.144 778.858l-303.428-303.428 303.428-303.428q10.856-10.856 10.856-25.714t-10.856-25.714l-94.856-94.856q-10.856-10.856-25.714-10.856t-25.714 10.856l-424 424q-10.856 10.856-10.856 25.714t10.856 25.714l424 424q10.856 10.856 25.714 10.856t25.714-10.856l94.856-94.858q10.856-10.856 10.856-25.714t-10.856-25.714z" />
<glyph unicode="&#xf054;" glyph-name="chevron-right" horiz-adv-x="732" d="M632.572 449.714l-424-424q-10.856-10.856-25.714-10.856t-25.714 10.856l-94.856 94.856q-10.856 10.856-10.856 25.714t10.856 25.714l303.428 303.428-303.428 303.428q-10.856 10.856-10.856 25.714t10.856 25.714l94.856 94.856q10.856 10.856 25.714 10.856t25.714-10.856l424-424q10.856-10.856 10.856-25.714t-10.856-25.714z" />
<glyph unicode="&#xf055;" glyph-name="plus-circle" d="M694.856 402.286v73.144q0 14.856-10.856 25.714t-25.714 10.858h-146.286v146.286q0 14.858-10.856 25.714t-25.714 10.856h-73.142q-14.856 0-25.714-10.856t-10.858-25.714v-146.286h-146.286q-14.856 0-25.714-10.856t-10.856-25.714v-73.142q0-14.856 10.856-25.714t25.714-10.856h146.286v-146.286q0-14.856 10.856-25.714t25.714-10.856h73.142q14.856 0 25.714 10.856t10.858 25.714v146.286h146.286q14.856 0 25.714 10.856t10.856 25.714zM877.714 438.858q0-119.428-58.856-220.286t-159.714-159.714-220.286-58.856-220.286 58.856-159.714 159.714-58.856 220.286 58.856 220.286 159.714 159.714 220.286 58.856 220.286-58.856 159.714-159.714 58.856-220.286z" />
<glyph unicode="&#xf056;" glyph-name="minus-circle" d="M694.856 402.286v73.144q0 14.856-10.856 25.714t-25.714 10.858h-438.858q-14.856 0-25.714-10.856t-10.856-25.714v-73.142q0-14.856 10.856-25.714t25.714-10.856h438.858q14.856 0 25.714 10.856t10.856 25.714zM877.714 438.858q0-119.428-58.856-220.286t-159.714-159.714-220.286-58.856-220.286 58.856-159.714 159.714-58.856 220.286 58.856 220.286 159.714 159.714 220.286 58.856 220.286-58.856 159.714-159.714 58.856-220.286z" />
<glyph unicode="&#xf057;" glyph-name="times-circle" d="M656.572 309.714q0 14.856-10.856 25.714l-103.428 103.428 103.428 103.428q10.856 10.856 10.856 25.714 0 15.428-10.856 26.286l-51.428 51.428q-10.856 10.856-26.286 10.856-14.856 0-25.714-10.856l-103.428-103.428-103.428 103.428q-10.856 10.856-25.714 10.856-15.428 0-26.286-10.856l-51.43-51.428q-10.856-10.856-10.856-26.286 0-14.856 10.856-25.714l103.43-103.428-103.43-103.428q-10.856-10.856-10.856-25.714 0-15.428 10.856-26.286l51.43-51.428q10.856-10.856 26.286-10.856 14.858 0 25.714 10.856l103.428 103.428 103.428-103.428q10.856-10.856 25.714-10.856 15.428 0 26.286 10.856l51.428 51.428q10.856 10.856 10.856 26.286zM877.714 438.858q0-119.428-58.856-220.286t-159.714-159.714-220.286-58.856-220.286 58.856-159.714 159.714-58.856 220.286 58.856 220.286 159.714 159.714 220.286 58.856 220.286-58.856 159.714-159.714 58.856-220.286z" />
<glyph unicode="&#xf058;" glyph-name="check-circle" d="M733.714 531.428q0 16-10.286 26.286l-52 51.43q-10.856 10.856-25.714 10.856t-25.714-10.856l-233.144-232.572-129.144 129.144q-10.856 10.856-25.714 10.856t-25.714-10.856l-52-51.428q-10.286-10.286-10.286-26.286 0-15.428 10.286-25.714l206.856-206.856q10.856-10.856 25.714-10.856 15.428 0 26.286 10.856l310.286 310.286q10.286 10.286 10.286 25.714zM877.714 438.858q0-119.428-58.856-220.286t-159.714-159.714-220.286-58.856-220.286 58.856-159.714 159.714-58.856 220.286 58.856 220.286 159.714 159.714 220.286 58.856 220.286-58.856 159.714-159.714 58.856-220.286z" />
<glyph unicode="&#xf059;" glyph-name="question-circle" d="M512 164.572v109.714q0 8-5.142 13.144t-13.142 5.144h-109.714q-8 0-13.142-5.144t-5.142-13.144v-109.714q0-8 5.142-13.144t13.144-5.144h109.714q8 0 13.142 5.144t5.144 13.144zM658.286 548.572q0 50.286-31.714 93.144t-79.144 66.286-97.144 23.428q-138.856 0-212-121.714-8.57-13.714 4.57-24l75.43-57.144q4-3.428 10.856-3.428 9.144 0 14.286 6.856 30.286 38.858 49.142 52.572 19.428 13.714 49.144 13.714 27.428 0 48.856-14.856t21.428-33.714q0-21.714-11.428-34.856t-38.856-25.714q-36-16-66-49.428t-30-71.714v-20.572q0-8 5.142-13.144t13.142-5.144h109.714q8 0 13.142 5.144t5.144 13.144q0 10.856 12.286 28.286t31.144 28.286q18.286 10.286 28 16.286t26.286 20 25.428 27.428 16 34.572 7.144 46.286zM877.714 438.858q0-119.428-58.856-220.286t-159.714-159.714-220.286-58.856-220.286 58.856-159.714 159.714-58.856 220.286 58.856 220.286 159.714 159.714 220.286 58.856 220.286-58.856 159.714-159.714 58.856-220.286z" />
<glyph unicode="&#xf05a;" glyph-name="info-circle" d="M585.144 164.572v91.428q0 8-5.144 13.144t-13.144 5.144h-54.856v292.572q0 8-5.142 13.144t-13.142 5.142h-182.856q-8 0-13.144-5.142t-5.142-13.144v-91.428q0-8 5.142-13.144t13.144-5.144h54.856v-182.856h-54.856q-8 0-13.144-5.144t-5.142-13.144v-91.428q0-8 5.142-13.144t13.144-5.144h256q8 0 13.144 5.144t5.144 13.144zM512 676.572v91.43q0 8-5.142 13.142t-13.142 5.144h-109.714q-8 0-13.142-5.144t-5.142-13.142v-91.43q0-8 5.142-13.142t13.144-5.144h109.714q8 0 13.142 5.144t5.144 13.144zM877.714 438.858q0-119.428-58.856-220.286t-159.714-159.714-220.286-58.856-220.286 58.856-159.714 159.714-58.856 220.286 58.856 220.286 159.714 159.714 220.286 58.856 220.286-58.856 159.714-159.714 58.856-220.286z" />
<glyph unicode="&#xf05b;" glyph-name="crosshairs" d="M684 365.714h-62.286q-14.856 0-25.714 10.856t-10.856 25.714v73.144q0 14.856 10.856 25.714t25.714 10.858h62.286q-18.286 61.714-64.286 107.714t-107.714 64.286v-62.286q0-14.856-10.858-25.714t-25.714-10.856h-73.142q-14.856 0-25.714 10.856t-10.858 25.714v62.286q-61.714-18.286-107.714-64.286t-64.286-107.714h62.286q14.858 0 25.714-10.856t10.856-25.714v-73.142q0-14.856-10.856-25.714t-25.714-10.856h-62.286q18.286-61.714 64.286-107.714t107.714-64.286v62.286q0 14.856 10.856 25.714t25.714 10.856h73.142q14.856 0 25.714-10.856t10.858-25.714v-62.286q61.714 18.286 107.714 64.286t64.286 107.714zM877.714 475.428v-73.144q0-14.856-10.856-25.714t-25.714-10.856h-81.714q-21.144-92-88.286-159.144t-159.144-88.286v-81.714q0-14.856-10.856-25.714t-25.714-10.856h-73.142q-14.856 0-25.714 10.856t-10.858 25.714v81.714q-92 21.144-159.144 88.286t-88.286 159.144h-81.714q-14.856 0-25.714 10.856t-10.856 25.714v73.144q0 14.856 10.856 25.714t25.714 10.858h81.714q21.144 92 88.286 159.144t159.144 88.286v81.714q0 14.856 10.856 25.714t25.714 10.858h73.142q14.856 0 25.714-10.858t10.858-25.714v-81.714q92-21.144 159.144-88.286t88.286-159.144h81.714q14.856 0 25.714-10.856t10.856-25.714z" />
<glyph unicode="&#xf05c;" glyph-name="times-circle-o" d="M626.856 334.286l-83.428-83.428q-5.714-5.714-13.144-5.714t-13.144 5.714l-78.286 78.286-78.286-78.286q-5.714-5.714-13.144-5.714t-13.144 5.714l-83.43 83.428q-5.714 5.714-5.714 13.144t5.714 13.144l78.286 78.286-78.286 78.286q-5.714 5.714-5.714 13.144t5.714 13.144l83.43 83.428q5.714 5.714 13.144 5.714t13.144-5.714l78.286-78.286 78.286 78.286q5.714 5.714 13.144 5.714t13.144-5.714l83.428-83.428q5.714-5.714 5.714-13.144t-5.714-13.144l-78.286-78.286 78.286-78.286q5.714-5.714 5.714-13.144t-5.714-13.144zM749.714 438.858q0 84.572-41.714 156t-113.144 113.144-156 41.714-156-41.714-113.144-113.144-41.714-156 41.714-156 113.144-113.144 156-41.714 156 41.714 113.144 113.144 41.714 156zM877.714 438.858q0-119.428-58.856-220.286t-159.714-159.714-220.286-58.856-220.286 58.856-159.714 159.714-58.856 220.286 58.856 220.286 159.714 159.714 220.286 58.856 220.286-58.856 159.714-159.714 58.856-220.286z" />
<glyph unicode="&#xf05d;" glyph-name="check-circle-o" d="M669.144 486.286l-241.144-241.144q-10.856-10.856-25.714-10.856t-25.714 10.856l-168 168q-10.856 10.856-10.856 25.714t10.856 25.714l58.286 58.286q10.858 10.856 25.714 10.856t25.714-10.856l84-84 157.142 157.144q10.856 10.856 25.714 10.856t25.714-10.856l58.286-58.286q10.856-10.856 10.856-25.714t-10.856-25.714zM749.714 438.858q0 84.572-41.714 156t-113.144 113.144-156 41.714-156-41.714-113.144-113.144-41.714-156 41.714-156 113.144-113.144 156-41.714 156 41.714 113.144 113.144 41.714 156zM877.714 438.858q0-119.428-58.856-220.286t-159.714-159.714-220.286-58.856-220.286 58.856-159.714 159.714-58.856 220.286 58.856 220.286 159.714 159.714 220.286 58.856 220.286-58.856 159.714-159.714 58.856-220.286z" />
<glyph unicode="&#xf05e;" glyph-name="ban" d="M749.714 440.572q0 92-49.714 168.572l-430.858-430.286q78.286-50.856 169.714-50.856 63.428 0 120.856 24.856t99.144 66.572 66.286 99.714 24.572 121.428zM178.856 269.714l431.428 430.856q-77.144 52-171.428 52-84.572 0-156-41.714t-113.144-113.714-41.714-156.57q0-92.572 50.856-170.856zM877.714 440.572q0-89.714-34.856-171.428t-93.428-140.572-140-93.714-170.572-34.856-170.572 34.856-140 93.714-93.43 140.572-34.856 171.428 34.856 171.144 93.43 140.286 140 93.714 170.572 34.856 170.572-34.856 140-93.714 93.428-140.286 34.856-171.144z" />
<glyph unicode="&#xf060;" glyph-name="arrow-left" d="M877.714 438.858v-73.144q0-30.286-18.572-51.714t-48.286-21.428h-402.286l167.43-168q21.714-20.572 21.714-51.428t-21.714-51.428l-42.856-43.428q-21.144-21.144-51.428-21.144-29.714 0-52 21.144l-372 372.572q-21.144 21.144-21.144 51.428 0 29.714 21.144 52l372 371.428q21.714 21.714 52 21.714 29.714 0 51.428-21.714l42.856-42.286q21.714-21.714 21.714-52t-21.714-52l-167.428-167.428h402.286q29.714 0 48.286-21.428t18.572-51.714z" />
<glyph unicode="&#xf061;" glyph-name="arrow-right" d="M841.144 402.286q0-30.856-21.144-52l-372-372q-22.286-21.144-52-21.144-29.144 0-51.428 21.144l-42.856 42.856q-21.714 21.714-21.714 52t21.714 52l167.428 167.428h-402.286q-29.714 0-48.286 21.428t-18.572 51.714v73.144q0 30.286 18.572 51.714t48.286 21.428h402.286l-167.428 168q-21.714 20.572-21.714 51.428t21.714 51.43l42.856 42.856q21.714 21.714 51.428 21.714 30.286 0 52-21.714l372-372q21.144-20 21.144-51.428z" />
<glyph unicode="&#xf062;" glyph-name="arrow-up" horiz-adv-x="952" d="M920.572 396q0-29.144-21.144-51.428l-42.856-42.856q-21.714-21.714-52-21.714-30.856 0-51.428 21.714l-168 167.428v-402.286q0-29.714-21.428-48.286t-51.714-18.572h-73.142q-30.286 0-51.714 18.572t-21.428 48.286v402.286l-168-167.428q-20.57-21.714-51.43-21.714t-51.43 21.714l-42.856 42.856q-21.714 21.714-21.714 51.428 0 30.286 21.714 52l372 372q20 21.142 51.428 21.142 30.856 0 52-21.142l372-372q21.144-22.286 21.144-52z" />
<glyph unicode="&#xf063;" glyph-name="arrow-down" horiz-adv-x="952" d="M920.572 475.428q0-30.286-21.144-51.428l-372-372.572q-22.286-21.144-52-21.144-30.286 0-51.428 21.144l-372 372.572q-21.714 20.572-21.714 51.428 0 30.286 21.714 52l42.286 42.856q22.286 21.144 52 21.144 30.286 0 51.43-21.144l168-168v402.286q0 29.714 21.714 51.43t51.43 21.714h73.144q29.714 0 51.428-21.714t21.714-51.43v-402.286l168 168q21.144 21.144 51.428 21.144 29.714 0 52-21.144l42.856-42.856q21.144-22.286 21.144-52z" />
<glyph unicode="&#xf064;" glyph-name="mail-forward" d="M1024 585.144q0-14.856-10.856-25.714l-292.572-292.572q-10.856-10.856-25.714-10.856t-25.714 10.856-10.856 25.714v146.286h-128q-56 0-100.286-3.428t-88-12.286-76-24.286-60.286-39.714-45.714-57.714-27.714-79.144-10-103.428q0-31.428 2.856-70.286 0-3.428 1.43-13.428t1.43-15.144q0-8.572-4.856-14.286t-13.43-5.714q-9.144 0-16 9.714-4 5.144-7.43 12.572t-7.714 17.144-6 13.714q-72.57 162.856-72.57 257.714 0 113.714 30.286 190.286 92.57 230.286 500 230.286h128v146.286q0 14.856 10.856 25.714t25.714 10.856 25.714-10.856l292.572-292.572q10.858-10.856 10.858-25.714z" />
<glyph unicode="&#xf065;" glyph-name="expand" d="M431.428 347.428q0-7.428-5.714-13.144l-189.714-189.714 82.286-82.286q10.858-10.856 10.858-25.714t-10.856-25.714-25.714-10.856h-256q-14.856 0-25.714 10.856t-10.856 25.714v256q0 14.856 10.856 25.714t25.714 10.856 25.714-10.856l82.286-82.286 189.714 189.714q5.714 5.714 13.144 5.714t13.144-5.714l65.144-65.144q5.714-5.714 5.714-13.144zM877.714 841.144v-256q0-14.856-10.856-25.714t-25.714-10.856-25.714 10.856l-82.286 82.286-189.714-189.714q-5.714-5.714-13.144-5.714t-13.144 5.714l-65.144 65.144q-5.714 5.714-5.714 13.144t5.714 13.144l189.714 189.714-82.286 82.286q-10.856 10.856-10.856 25.714t10.856 25.714 25.714 10.856h256q14.856 0 25.714-10.856t10.856-25.714z" />
<glyph unicode="&#xf066;" glyph-name="compress" d="M438.858 402.286v-256q0-14.856-10.858-25.714t-25.714-10.856-25.714 10.856l-82.286 82.286-189.714-189.714q-5.714-5.714-13.144-5.714t-13.144 5.714l-65.144 65.144q-5.714 5.714-5.714 13.144t5.714 13.144l189.714 189.714-82.286 82.286q-10.856 10.856-10.856 25.714t10.856 25.714 25.714 10.856h256q14.856 0 25.714-10.856t10.858-25.714zM870.286 786.286q0-7.428-5.714-13.144l-189.714-189.714 82.286-82.286q10.856-10.856 10.856-25.714t-10.856-25.714-25.714-10.856h-256q-14.856 0-25.714 10.856t-10.858 25.714v256q0 14.856 10.856 25.714t25.714 10.856 25.714-10.856l82.286-82.286 189.714 189.714q5.714 5.714 13.144 5.714t13.144-5.714l65.144-65.144q5.714-5.714 5.714-13.144z" />
<glyph unicode="&#xf067;" glyph-name="plus" horiz-adv-x="806" d="M804.572 530.286v-109.714q0-22.856-16-38.856t-38.856-16h-237.714v-237.714q0-22.856-16-38.856t-38.856-16h-109.714q-22.858 0-38.858 16t-16 38.856v237.714h-237.714q-22.856 0-38.856 16t-16 38.856v109.714q0 22.858 16 38.858t38.856 16h237.714v237.714q0 22.858 16 38.858t38.856 16h109.714q22.858 0 38.858-16t16-38.858v-237.714h237.714q22.856 0 38.856-16t16-38.856z" />
<glyph unicode="&#xf068;" glyph-name="minus" horiz-adv-x="806" d="M804.572 530.286v-109.714q0-22.856-16-38.856t-38.856-16h-694.856q-22.856 0-38.856 16t-16 38.856v109.714q0 22.858 16 38.858t38.856 16h694.856q22.856 0 38.856-16t16-38.856z" />
<glyph unicode="&#xf069;" glyph-name="asterisk" horiz-adv-x="952" d="M846.856 350.858q26.286-14.856 34-44.286t-7.144-55.714l-36.572-62.856q-14.856-26.286-44.286-34t-55.714 7.144l-152 87.428v-175.428q0-29.714-21.714-51.428t-51.428-21.714h-73.144q-29.714 0-51.428 21.714t-21.714 51.428v175.428l-152-87.428q-26.286-14.856-55.714-7.144t-44.286 34l-36.57 62.856q-14.856 26.286-7.144 55.714t34 44.286l152 88-152 88q-26.286 14.856-34 44.286t7.144 55.714l36.57 62.856q14.856 26.286 44.286 34t55.714-7.144l152-87.428v175.428q0 29.714 21.714 51.428t51.428 21.714h73.144q29.714 0 51.428-21.714t21.714-51.428v-175.428l152 87.428q26.286 14.856 55.714 7.144t44.286-34l36.572-62.856q14.856-26.286 7.144-55.714t-34-44.286l-152-88z" />
<glyph unicode="&#xf06a;" glyph-name="exclamation-circle" d="M438.858 877.714q119.43 0 220.286-58.856t159.714-159.714 58.856-220.286-58.856-220.286-159.714-159.714-220.286-58.856-220.286 58.856-159.714 159.714-58.856 220.286 58.856 220.286 159.714 159.714 220.286 58.856zM512 165.144v108.572q0 8-5.142 13.428t-12.572 5.428h-109.714q-7.428 0-13.144-5.714t-5.714-13.144v-108.572q0-7.428 5.714-13.144t13.144-5.714h109.714q7.428 0 12.572 5.428t5.142 13.428zM510.858 361.714l10.286 354.856q0 6.856-5.714 10.286-5.714 4.57-13.714 4.57h-125.714q-8 0-13.714-4.57-5.714-3.43-5.714-10.286l9.714-354.856q0-5.714 5.714-10t13.714-4.286h105.714q8 0 13.428 4.286t6 10z" />
<glyph unicode="&#xf06b;" glyph-name="gift" d="M530.286 176v409.142h-182.856v-409.142q0-14.286 10.286-22t26.286-7.714h109.714q16 0 26.286 7.714t10.286 22zM269.714 658.286h111.43l-72 92q-14.856 17.714-39.428 17.714-22.856 0-38.856-16t-16-38.856 16-38.856 38.856-16zM662.856 713.144q0 22.858-16 38.858t-38.856 16q-24.572 0-39.428-17.714l-71.428-92h110.856q22.856 0 38.856 16t16 38.856zM877.714 566.858v-182.856q0-8-5.144-13.144t-13.144-5.144h-54.856v-237.714q0-22.856-16-38.856t-38.856-16h-621.714q-22.856 0-38.856 16t-16 38.856v237.714h-54.856q-8 0-13.144 5.144t-5.142 13.144v182.856q0 8 5.142 13.144t13.144 5.142h251.43q-53.144 0-90.57 37.43t-37.43 90.572 37.43 90.57 90.57 37.43q61.144 0 96-44l73.144-94.286 73.144 94.286q34.856 44 96 44 53.144 0 90.572-37.43t37.428-90.57-37.428-90.572-90.572-37.428h251.428q8 0 13.144-5.144t5.144-13.142z" />
<glyph unicode="&#xf06c;" glyph-name="leaf" d="M731.428 548.572q0 14.858-10.856 25.714t-25.714 10.856q-98.286 0-181.714-28.286t-148.286-76.57-134.57-125.428q-10.856-12-10.856-25.714 0-14.856 10.856-25.714t25.714-10.856q13.714 0 25.714 10.856 15.428 13.714 42.286 40.572t38.286 37.714q78.286 70.856 153.43 100.572t179.144 29.714q14.856 0 25.714 10.858t10.856 25.714zM1024 661.714q0-54.286-11.428-110.286-26.286-128-105.428-218.856t-204.286-153.144q-122.286-61.714-250.286-61.714-84.57 0-163.43 26.856-8.572 2.856-50.286 24t-54.856 21.144q-9.144 0-22.57-18.286t-25.714-40-30-40-34.286-18.286q-17.144 0-29.144 6.286t-17.714 13.714-15.43 24q-1.142 2.286-3.43 6.286t-3.142 5.714-1.714 5.428-0.856 7.714q0 20 17.714 42t38.856 37.428 38.856 32 17.714 27.428q0 2.286-8 21.714t-9.144 25.144q-5.144 29.144-5.144 59.428 0 65.714 24.856 125.714t68 105.43 97.43 79.428 116.572 54.572q31.428 10.286 82.856 14.572t102.572 5.142 102 3.428 93.428 13.714 64.856 32.286l16.856 16.858t16.856 16 15.428 11.428 20.856 9.144 24.856 2.57q22.286 0 40.286-26.286t27.144-64 13.714-70.856 4.572-54.856z" />
<glyph unicode="&#xf06d;" glyph-name="fire" horiz-adv-x="806" d="M804.572-18.286v-36.572q0-7.428-5.428-12.858t-12.856-5.428h-768q-7.43 0-12.856 5.428t-5.43 12.858v36.572q0 7.428 5.43 12.856t12.856 5.428h768q7.428 0 12.856-5.428t5.428-12.856zM658.286 585.144q0-44.57-14-82.286t-36.572-64.286-50-50.286-54.856-44.286-50-41.144-36.572-46.572-14-55.144q0-54.856 38.286-128l-2.286 0.572 0.572-0.572q-51.428 23.428-91.428 47.428t-79.144 57.144-64.856 70-41.43 86-15.714 105.144q0 44.572 14 82.286t36.57 64.286 50 50.286 54.856 44.286 50 41.144 36.572 46.57 14 55.144q0 53.714-37.714 128l1.714-0.572-0.572 0.572q51.428-23.428 91.428-47.428t79.144-57.144 64.856-70 41.428-86 15.714-105.144z" />
<glyph unicode="&#xf06e;" glyph-name="eye" d="M950.856 402.286q-86.856 134.856-217.714 201.714 34.856-59.428 34.856-128.57 0-105.714-75.144-180.856t-180.856-75.144-180.856 75.144-75.144 180.856q0 69.144 34.856 128.572-130.856-66.856-217.714-201.714 76-117.144 190.57-186.572t248.286-69.428 248.286 69.428 190.572 186.572zM539.428 621.714q0 11.428-8 19.428t-19.428 8q-71.428 0-122.572-51.142t-51.144-122.572q0-11.428 8-19.428t19.428-8 19.428 8 8 19.428q0 49.144 34.856 84t84 34.856q11.428 0 19.428 8t8 19.428zM1024 402.286q0-19.428-11.428-39.428-80-131.428-215.144-210.572t-285.428-79.144-285.428 79.428-215.144 210.286q-11.43 20-11.43 39.428t11.43 39.428q80 130.856 215.144 210.286t285.428 79.428 285.428-79.428 215.144-210.286q11.428-20 11.428-39.428z" />
<glyph unicode="&#xf070;" glyph-name="eye-slash" d="M317.142 188l44.57 80.572q-49.714 36-77.714 90.856t-28 116q0 69.144 34.858 128.572-130.856-66.856-217.714-201.714 95.43-147.428 244-214.286zM539.428 621.714q0 11.428-8 19.428t-19.428 8q-71.428 0-122.572-51.142t-51.144-122.572q0-11.428 8-19.428t19.428-8 19.428 8 8 19.428q0 49.144 34.856 84t84 34.856q11.428 0 19.428 8t8 19.428zM746.856 730.858q0-4-0.572-5.144-60-107.428-180-323.428t-180.572-324l-28-50.856q-5.714-9.144-16-9.144-6.858 0-76.572 40-9.144 5.714-9.144 16 0 6.856 25.144 49.714-81.714 37.144-150.57 98.856t-119.144 140q-11.43 17.714-11.43 39.428t11.43 39.428q87.43 134.286 217.144 212t283.428 77.714q50.856 0 102.856-9.714l30.856 55.428q5.714 9.144 16 9.144 2.856 0 10.286-3.428t17.714-8.858 18.856-10.572 18-10.57 11.144-6.572q9.144-5.714 9.144-15.428zM768 475.428q0-79.428-45.144-144.856t-119.428-94l160 286.856q4.572-25.714 4.572-48zM1024 402.286q0-20-11.428-39.428-22.286-36.572-62.286-82.856-85.714-98.286-198.572-152.572t-239.714-54.286l42.286 75.428q121.144 10.286 224.286 78.286t172.286 175.428q-65.714 102.286-161.144 168l36 64q54.286-36.572 104.286-87.428t82.572-105.144q11.428-19.428 11.428-39.428z" />
<glyph unicode="&#xf071;" glyph-name="exclamation-triangle" d="M585.144 165.144v108.572q0 8-5.428 13.428t-12.856 5.428h-109.714q-7.428 0-12.858-5.428t-5.428-13.428v-108.572q0-8 5.428-13.428t12.856-5.428h109.714q7.428 0 12.856 5.428t5.428 13.428zM584 378.858l10.286 262.286q0 6.858-5.714 10.858-7.428 6.286-13.714 6.286h-125.714q-6.286 0-13.714-6.286-5.714-4-5.714-12l9.714-261.144q0-5.714 5.714-9.428t13.714-3.714h105.714q8 0 13.428 3.714t6 9.428zM576 912.572l438.856-804.57q20-36-1.144-72-9.714-16.572-26.572-26.286t-36.286-9.714h-877.714q-19.43 0-36.286 9.714t-26.572 26.286q-21.144 36-1.144 72l438.858 804.572q9.714 17.714 26.858 28t37.144 10.286 37.144-10.286 26.856-28z" />
<glyph unicode="&#xf072;" glyph-name="plane" horiz-adv-x="806" d="M786.286 859.428q25.144-29.714 6.856-84.57t-61.714-98.286l-92-92 91.428-397.714q2.856-10.856-6.856-18.856l-73.144-54.856q-4-3.428-10.856-3.428-2.286 0-4 0.572-8.572 1.714-12 9.144l-159.428 290.286-148-148 30.286-110.856q2.858-9.714-4.572-17.714l-54.858-54.856q-5.142-5.144-13.144-5.144h-1.142q-8.572 1.144-13.714 7.428l-108 144-144 108q-6.286 4-7.43 13.144-0.57 7.428 5.142 14.286l54.856 55.428q5.144 5.144 13.144 5.144 3.43 0 4.57-0.572l110.856-30.286 148 148-290.286 159.428q-8 4.572-9.714 13.714-1.144 9.142 5.144 15.428l73.144 73.142q8 7.43 17.144 4.572l380-90.856 91.428 91.428q43.428 43.43 98.286 61.714t84.572-6.858z" />
<glyph unicode="&#xf073;" glyph-name="calendar" horiz-adv-x="952" d="M73.144 0h164.57v164.572h-164.57v-164.572zM274.286 0h182.858v164.572h-182.856v-164.572zM73.144 201.144h164.57v182.856h-164.57v-182.856zM274.286 201.144h182.858v182.856h-182.856v-182.856zM73.144 420.572h164.57v164.572h-164.57v-164.572zM493.714 0h182.858v164.572h-182.856v-164.572zM274.286 420.572h182.858v164.572h-182.856v-164.572zM713.144 0h164.572v164.572h-164.572v-164.572zM493.714 201.144h182.858v182.856h-182.856v-182.856zM292.572 694.858v164.57q0 7.43-5.428 12.858t-12.856 5.428h-36.57q-7.43 0-12.856-5.428t-5.43-12.858v-164.57q0-7.428 5.43-12.856t12.856-5.428h36.57q7.428 0 12.856 5.428t5.428 12.856zM713.144 201.144h164.572v182.856h-164.572v-182.856zM493.714 420.572h182.858v164.572h-182.856v-164.572zM713.144 420.572h164.572v164.572h-164.572v-164.572zM731.428 694.858v164.57q0 7.43-5.428 12.858t-12.856 5.428h-36.572q-7.428 0-12.856-5.428t-5.428-12.858v-164.57q0-7.428 5.428-12.856t12.856-5.428h36.572q7.428 0 12.856 5.428t5.428 12.856zM950.856 731.428v-731.428q0-29.714-21.714-51.428t-51.428-21.714h-804.572q-29.714 0-51.43 21.714t-21.714 51.428v731.428q0 29.714 21.714 51.428t51.43 21.714h73.144v54.856q0 37.714 26.856 64.57t64.57 26.858h36.57q37.714 0 64.57-26.858t26.856-64.57v-54.856h219.428v54.856q0 37.714 26.856 64.57t64.572 26.858h36.572q37.714 0 64.572-26.858t26.856-64.57v-54.856h73.144q29.714 0 51.428-21.714t21.714-51.428z" />
<glyph unicode="&#xf074;" glyph-name="random" d="M380.572 676q-34.286-52.57-78.286-156-12.572 25.714-21.142 41.43t-23.144 36.286-29.144 32.286-36 20-46.57 8.286h-128q-8 0-13.144 5.144t-5.142 13.144v109.714q0 8 5.142 13.144t13.144 5.144h128q142.858 0 234.286-128.572zM1024 219.428q0-8-5.144-13.144l-182.856-182.856q-5.144-5.144-13.144-5.144-7.428 0-12.856 5.428t-5.428 12.856v109.714q-18.286 0-48.572-0.286t-46.286-0.572-41.714 0.572-40.572 2.856-36.572 6-36 10.572-33.144 16.286-33.714 22.856-31.428 30.572-32 39.714q33.714 53.144 77.714 156 12.572-25.714 21.144-41.428t23.144-36.286 29.144-32.286 36-20 46.572-8.286h146.286v109.714q0 8 5.144 13.144t13.144 5.144q6.856 0 13.714-5.714l182.286-182.286q5.144-5.144 5.144-13.144zM1024 731.428q0-8-5.144-13.142l-182.856-182.856q-5.144-5.144-13.144-5.144-7.428 0-12.856 5.428t-5.428 12.858v109.714h-146.286q-27.428 0-49.714-8.572t-39.428-25.714-29.144-35.144-25.714-44.286q-18.286-35.428-44.572-97.714-16.572-37.714-28.286-63.428t-30.858-60-36.572-57.144-42.286-47.428-51.43-39.144-60.856-24-73.144-9.428h-128q-8 0-13.144 5.144t-5.142 13.144v109.714q0 8 5.142 13.144t13.144 5.144h128q27.43 0 49.714 8.572t39.43 25.714 29.144 35.144 25.714 44.286q18.286 35.428 44.572 97.714 16.572 37.714 28.286 63.43t30.858 60 36.572 57.144 42.286 47.428 51.43 39.144 60.856 24 73.144 9.428h146.286v109.714q0 8 5.144 13.144t13.144 5.144q6.856 0 13.714-5.714l182.286-182.286q5.144-5.144 5.144-13.144z" />
<glyph unicode="&#xf075;" glyph-name="comment" d="M1024 438.858q0-99.428-68.572-183.714t-186.286-133.144-257.144-48.856q-40 0-82.856 4.572-113.144-100-262.858-138.286-28-8-65.144-12.572-9.714-1.142-17.43 5.144t-10 16.572v0.572q-1.714 2.286-0.286 6.856t1.144 5.714 2.57 5.428l3.43 5.144t4 4.856 4.57 5.144q4 4.572 17.714 19.714t19.714 21.714 17.714 22.572 18.57 29.144 15.43 33.714 14.856 43.428q-89.714 50.856-141.43 125.714t-51.714 160.572q0 74.286 40.57 142t109.144 116.856 163.428 78 198.856 28.856q139.428 0 257.142-48.856t186.286-133.144 68.572-183.714z" />
<glyph unicode="&#xf076;" glyph-name="magnet" d="M877.714 475.428v-73.144q0-114.856-56.286-206.856t-156.572-143.714-226-51.714-226 51.714-156.57 143.714-56.286 206.856v73.144q0 14.856 10.856 25.714t25.714 10.858h219.43q14.856 0 25.714-10.856t10.858-25.714v-73.142q0-29.714 13.428-51.428t30.572-32.572 40.572-17.144 36.572-7.428 25.144-1.144 25.144 1.144 36.572 7.428 40.572 17.144 30.572 32.572 13.428 51.428v73.144q0 14.856 10.856 25.714t25.714 10.858h219.428q14.856 0 25.714-10.856t10.856-25.714zM292.572 841.144v-219.428q0-14.856-10.856-25.714t-25.714-10.856h-219.43q-14.856 0-25.714 10.856t-10.856 25.714v219.428q0 14.858 10.856 25.714t25.714 10.856h219.43q14.858 0 25.714-10.856t10.856-25.714zM877.714 841.144v-219.428q0-14.856-10.856-25.714t-25.714-10.856h-219.428q-14.856 0-25.714 10.856t-10.856 25.714v219.428q0 14.858 10.856 25.714t25.714 10.856h219.428q14.856 0 25.714-10.856t10.856-25.714z" />
<glyph unicode="&#xf077;" glyph-name="chevron-up" d="M961.714 190.286l-94.856-94.286q-10.856-10.856-25.714-10.856t-25.714 10.856l-303.428 303.428-303.428-303.428q-10.856-10.856-25.714-10.856t-25.714 10.856l-94.856 94.286q-10.856 10.856-10.856 26t10.856 26l424 423.428q10.856 10.856 25.714 10.856t25.714-10.856l424-423.428q10.856-10.856 10.856-26t-10.856-26z" />
<glyph unicode="&#xf078;" glyph-name="chevron-down" d="M961.714 489.144l-424-423.428q-10.856-10.856-25.714-10.856t-25.714 10.856l-424 423.428q-10.856 10.856-10.856 26t10.856 26l94.856 94.286q10.856 10.858 25.714 10.858t25.714-10.856l303.428-303.428 303.428 303.428q10.856 10.856 25.714 10.856t25.714-10.856l94.856-94.286q10.856-10.856 10.856-26t-10.856-26z" />
<glyph unicode="&#xf079;" glyph-name="retweet" horiz-adv-x="1098" d="M731.428 91.428q0-7.428-5.428-12.856t-12.856-5.428h-548.572q-4.57 0-7.714 1.144t-5.144 4-3.144 4.572-1.714 6.572-0.57 6.572v342.858h-109.714q-14.856 0-25.714 10.856t-10.856 25.714q0 13.714 8.57 23.428l182.856 219.428q10.856 12.572 28 12.572t28-12.572l182.858-219.428q8.572-9.714 8.572-23.428 0-14.856-10.856-25.714t-25.714-10.856h-109.714v-219.428h329.144q9.144 0 14.286-6.286l91.428-109.714q4-6.286 4-12zM1097.144 329.144q0-13.714-8.57-23.428l-182.856-219.428q-11.428-13.144-28-13.144t-28 13.144l-182.856 219.428q-8.572 9.714-8.572 23.428 0 14.856 10.856 25.714t25.714 10.856h109.714v219.428h-329.142q-9.142 0-14.286 6.856l-91.428 109.714q-4 5.144-4 11.428 0 7.428 5.428 12.856t12.856 5.428h548.572q4.572 0 7.714-1.142t5.144-4 3.144-4.572 1.714-6.572 0.572-6.572v-342.856h109.714q14.856 0 25.714-10.856t10.856-25.714z" />
<glyph unicode="&#xf07a;" glyph-name="shopping-cart" horiz-adv-x="952" d="M365.714 73.144q0-29.714-21.714-51.428t-51.428-21.714-51.43 21.714-21.714 51.428 21.714 51.428 51.43 21.714 51.428-21.714 21.714-51.428zM877.714 73.144q0-29.714-21.714-51.428t-51.428-21.714-51.428 21.714-21.714 51.428 21.714 51.428 51.428 21.714 51.428-21.714 21.714-51.428zM950.856 694.858v-292.572q0-13.714-9.428-24.286t-23.144-12.286l-596.572-69.714q7.428-34.286 7.428-40 0-9.144-13.714-36.572h525.714q14.856 0 25.714-10.856t10.856-25.714-10.856-25.714-25.714-10.856h-585.144q-14.856 0-25.714 10.856t-10.856 25.714q0 6.286 4.57 18t9.144 20.572 12.286 22.856 8.856 16.856l-101.144 470.286h-116.57q-14.856 0-25.714 10.856t-10.856 25.714 10.856 25.714 25.714 10.856h146.286q9.144 0 16.286-3.714t11.144-8.856 7.43-14 4.57-14.856 3.144-16.858 2.57-14.856h686.286q14.856 0 25.714-10.856t10.856-25.714z" />
<glyph unicode="&#xf07b;" glyph-name="folder" horiz-adv-x="952" d="M950.856 603.428v-402.286q0-52.572-37.714-90.286t-90.286-37.714h-694.856q-52.57 0-90.286 37.714t-37.714 90.286v548.572q0 52.572 37.714 90.286t90.286 37.714h182.856q52.572 0 90.286-37.714t37.714-90.286v-18.286h384q52.572 0 90.286-37.714t37.714-90.286z" />
<glyph unicode="&#xf07c;" glyph-name="folder-open" horiz-adv-x="1098" d="M1073.714 406.858q0-17.714-17.714-37.714l-192-226.286q-24.572-29.144-68.856-49.428t-82-20.286h-621.714q-19.43 0-34.57 7.428t-15.144 24.572q0 17.714 17.714 37.714l192 226.286q24.572 29.144 68.856 49.428t82 20.286h621.714q19.43 0 34.57-7.428t15.144-24.572zM877.714 603.428v-91.428h-475.428q-53.714 0-112.572-27.144t-93.714-68.286l-195.43-229.714q0 2.286-0.286 7.144t-0.286 7.144v548.572q0 52.572 37.714 90.286t90.286 37.714h182.856q52.57 0 90.286-37.714t37.714-90.286v-18.286h310.858q52.572 0 90.286-37.714t37.714-90.286z" />
<glyph unicode="&#xf07d;" glyph-name="arrows-v" horiz-adv-x="440" d="M402.286 768q0-14.858-10.858-25.714t-25.714-10.856h-73.142v-585.144h73.144q14.856 0 25.714-10.856t10.858-25.714-10.856-25.714l-146.286-146.286q-10.856-10.856-25.714-10.856t-25.714 10.856l-146.286 146.286q-10.856 10.856-10.856 25.714t10.856 25.714 25.714 10.856h73.144v585.144h-73.144q-14.856 0-25.714 10.856t-10.856 25.714 10.856 25.714l146.286 146.286q10.856 10.858 25.714 10.858t25.714-10.858l146.286-146.286q10.856-10.856 10.856-25.714z" />
<glyph unicode="&#xf07e;" glyph-name="arrows-h" d="M1024 438.858q0-14.856-10.856-25.714l-146.286-146.286q-10.856-10.856-25.714-10.856t-25.714 10.856-10.856 25.714v73.144h-585.144v-73.144q0-14.856-10.856-25.714t-25.714-10.856-25.714 10.856l-146.286 146.286q-10.856 10.856-10.856 25.714t10.856 25.714l146.286 146.286q10.856 10.858 25.714 10.858t25.714-10.856 10.856-25.714v-73.142h585.144v73.144q0 14.856 10.856 25.714t25.714 10.858 25.714-10.856l146.286-146.286q10.856-10.856 10.856-25.714z" />
<glyph unicode="&#xf080;" glyph-name="bar-chart" horiz-adv-x="1170" d="M365.714 438.858v-292.572h-146.286v292.572h146.286zM585.144 731.428v-585.142h-146.286v585.144h146.286zM1170.286 73.144v-73.144h-1170.286v877.714h73.144v-804.572h1097.144zM804.572 585.144v-438.856h-146.286v438.856h146.286zM1024 804.572v-658.286h-146.286v658.286h146.286z" />
<glyph unicode="&#xf081;" glyph-name="twitter-square" d="M731.428 602.286q-32-14.286-69.144-19.428 38.856 22.856 53.144 66.856-37.144-21.714-76.572-29.144-34.856 37.714-87.428 37.714-49.714 0-84.856-35.142t-35.144-84.856q0-16.572 2.858-27.428-73.714 4-138.286 37.144t-109.714 88.572q-16.57-28.572-16.57-60.572 0-65.144 52-100-26.856 0.572-57.144 14.856v-1.144q0-42.856 28.57-76.286t70.286-41.428q-16.57-4.572-29.144-4.572-7.43 0-22.286 2.286 12-36 42.57-59.428t69.43-24q-66.286-51.428-149.144-51.428-14.856 0-28.57 1.714 84.57-53.714 184-53.714 64 0 120 20.286t96 54.286 68.856 78.286 42.856 92.572 14 96.286q0 10.286-0.572 15.428 36 25.714 60 62.286zM877.714 713.144v-548.572q0-68-48.286-116.286t-116.286-48.286h-548.572q-68 0-116.286 48.286t-48.286 116.286v548.572q0 68 48.286 116.286t116.286 48.286h548.572q68 0 116.286-48.286t48.286-116.286z" />
<glyph unicode="&#xf082;" glyph-name="facebook-square" d="M713.144 877.714q68 0 116.286-48.286t48.286-116.286v-548.572q0-68-48.286-116.286t-116.286-48.286h-107.428v340h113.714l17.144 132.572h-130.856v84.572q0 32 13.428 48t52.286 16l69.714 0.572v118.286q-36 5.144-101.714 5.144-77.714 0-124.286-45.714t-46.572-129.144v-97.714h-114.286v-132.57h114.286v-340h-304q-68 0-116.286 48.286t-48.286 116.286v548.572q0 68 48.286 116.286t116.286 48.286h548.572z" />
<glyph unicode="&#xf083;" glyph-name="camera-retro" d="M530.286 475.428q0 8-5.144 13.144t-13.144 5.142q-37.714 0-64.572-26.856t-26.856-64.572q0-8 5.142-13.144t13.142-5.144 13.144 5.144 5.142 13.144q0 22.856 16 38.856t38.858 16q8 0 13.144 5.142t5.144 13.144zM658.286 401.144q0-60.572-42.856-103.428t-103.428-42.856-103.428 42.856-42.856 103.428 42.856 103.428 103.428 42.856 103.428-42.856 42.856-103.428zM73.144 73.144h877.714v73.144h-877.714v-73.144zM731.428 401.144q0 90.856-64.286 155.144t-155.144 64.286-155.144-64.286-64.286-155.144 64.286-155.144 155.144-64.286 155.144 64.286 64.286 155.144zM146.286 768h219.43v73.142h-219.43v-73.142zM73.144 658.286h877.714v146.286h-473.142l-36.57-73.144h-368v-73.142zM1024 804.572v-731.428q0-30.286-21.428-51.714t-51.714-21.428h-877.714q-30.286 0-51.714 21.428t-21.428 51.714v731.428q0 30.286 21.428 51.714t51.714 21.428h877.714q30.286 0 51.714-21.428t21.428-51.714z" />
<glyph unicode="&#xf084;" glyph-name="key" d="M475.428 658.286q0 45.714-32 77.714t-77.714 32-77.714-32-32-77.714q0-24 10.856-47.428-23.43 10.856-47.43 10.856-45.714 0-77.714-32t-32-77.714 32-77.714 77.714-32 77.714 32 32 77.714q0 24-10.856 47.43 23.428-10.856 47.428-10.856 45.714 0 77.714 32t32 77.714zM961.714 256q0-9.714-28-37.714t-37.714-28q-5.144 0-16.286 9.144t-20.856 18.856-22 22.856-14 14.856l-54.856-54.856 125.714-125.714q16-16 16-38.856 0-24-22.286-46.286t-46.286-22.286q-22.856 0-38.856 16l-383.428 383.428q-100.572-74.856-208.57-74.856-93.144 0-151.714 58.572t-58.57 151.714q0 91.43 54.286 178.858t141.714 141.714 178.856 54.286q93.144 0 151.714-58.572t58.572-151.714q0-108-74.856-208.572l202.856-202.856 54.856 54.856q-1.714 1.714-14.856 14t-22.856 22-18.856 20.856-9.144 16.286q0 9.714 28 37.714t37.714 28q7.428 0 13.144-5.714 3.428-3.428 26.286-25.428t46.856-45.428 49.428-49.144 41.714-44.572 16.286-23.428z" />
<glyph unicode="&#xf085;" glyph-name="cogs" horiz-adv-x="1098" d="M512 438.858q0 60.572-42.856 103.428t-103.428 42.856-103.428-42.856-42.856-103.428 42.856-103.428 103.428-42.856 103.428 42.856 42.856 103.428zM950.856 146.286q0 29.714-21.714 51.428t-51.428 21.714-51.428-21.714-21.714-51.428q0-30.286 21.428-51.714t51.714-21.428 51.714 21.428 21.428 51.714zM950.856 731.428q0 29.714-21.714 51.43t-51.428 21.714-51.428-21.714-21.714-51.43q0-30.286 21.428-51.714t51.714-21.428 51.714 21.428 21.428 51.714zM731.428 490.858v-105.714q0-5.714-4-11.144t-9.144-6l-88.572-13.714q-6.286-20-18.286-43.428 19.428-27.428 51.428-65.714 4-5.714 4-11.428 0-6.856-4-10.856-13.144-17.144-47.144-51.144t-44.856-34q-6.286 0-12 4l-65.714 51.428q-21.142-10.856-44-17.714-6.286-61.714-13.142-88.572-4-13.714-17.144-13.714h-106.286q-6.286 0-11.428 4.286t-5.714 10l-13.144 87.428q-19.428 5.714-42.856 17.714l-67.43-50.856q-4-4-11.43-4-6.286 0-12 4.572-82.286 76-82.286 91.428 0 5.144 4 10.856 5.714 8 23.43 30.286t26.856 34.856q-13.144 25.144-20 46.856l-86.856 13.714q-5.714 0.572-9.714 5.428t-4 11.144v105.714q0 5.714 4 11.144t9.144 6l88.57 13.714q6.286 20 18.286 43.43-19.43 27.428-51.43 65.714-4 6.286-4 11.428 0 6.858 4 11.428 12.57 17.144 46.856 50.856t45.144 33.714q6.286 0 12-4l65.714-51.428q19.43 10.286 44 18.286 6.286 61.714 13.144 88 4 13.714 17.144 13.714h106.286q6.286 0 11.428-4.286t5.714-10l13.144-87.428q19.428-5.714 42.856-17.714l67.428 50.856q4.572 4 11.428 4 6.286 0 12-4.572 82.286-76 82.286-91.428 0-5.144-4-10.856-6.856-9.144-24-30.856t-25.714-34.286q13.144-27.428 19.428-46.856l86.856-13.144q5.714-1.144 9.714-6t4-11.144zM1097.144 186.286v-80q0-9.144-85.144-17.714-6.856-15.428-17.144-29.714 29.144-64.572 29.144-78.856 0-2.286-2.286-4-69.714-40.572-70.856-40.572-4.572 0-26.286 26.858t-29.714 38.856q-11.428-1.144-17.144-1.144t-17.144 1.144q-8-12-29.714-38.856t-26.286-26.858q-1.144 0-70.856 40.572-2.286 1.714-2.286 4 0 14.286 29.144 78.856-10.286 14.286-17.144 29.714-85.144 8.572-85.144 17.714v80q0 9.144 85.144 17.714 7.428 16.572 17.144 29.714-29.144 64.572-29.144 78.856 0 2.286 2.286 4 2.286 1.144 20 11.428t33.714 19.428 17.144 9.144q4.572 0 26.286-26.572t29.714-38.572q11.428 1.144 17.144 1.144t17.144-1.144q29.144 40.572 52.572 64l3.428 1.144q2.286 0 70.856-40 2.286-1.714 2.286-4 0-14.286-29.144-78.856 9.714-13.144 17.144-29.714 85.144-8.572 85.144-17.714zM1097.144 771.428v-80q0-9.144-85.144-17.714-6.856-15.428-17.144-29.714 29.144-64.572 29.144-78.856 0-2.286-2.286-4-69.714-40.572-70.856-40.572-4.572 0-26.286 26.856t-29.714 38.856q-11.428-1.144-17.144-1.144t-17.144 1.144q-8-12-29.714-38.856t-26.286-26.856q-1.144 0-70.856 40.572-2.286 1.714-2.286 4 0 14.286 29.144 78.856-10.286 14.286-17.144 29.714-85.144 8.572-85.144 17.714v80q0 9.142 85.144 17.714 7.428 16.572 17.144 29.714-29.144 64.57-29.144 78.856 0 2.286 2.286 4 2.286 1.144 20 11.428t33.714 19.428 17.144 9.144q4.572 0 26.286-26.572t29.714-38.57q11.428 1.142 17.144 1.142t17.144-1.142q29.144 40.572 52.572 64l3.428 1.142q2.286 0 70.856-40 2.286-1.714 2.286-4 0-14.286-29.144-78.856 9.714-13.144 17.144-29.714 85.144-8.572 85.144-17.714z" />
<glyph unicode="&#xf086;" glyph-name="comments" d="M804.572 512q0-79.428-53.714-146.856t-146.572-106.572-202-39.144q-49.144 0-100.572 9.144-70.856-50.286-158.856-73.144-20.57-5.144-49.144-9.144h-1.714q-6.286 0-11.714 4.572t-6.57 12q-0.57 1.714-0.57 3.714t0.286 3.714 1.144 3.428l1.43 2.856t2 3.144 2.286 2.856 2.57 2.856 2.286 2.572q2.856 3.428 13.144 14.286t14.856 16.856 12.856 16.572 14.286 22 11.714 25.144q-70.856 41.144-111.43 101.144t-40.57 128q0 79.428 53.714 146.856t146.57 106.572 202 39.142 202-39.142 146.572-106.572 53.714-146.856zM1024 365.714q0-68.572-40.572-128.286t-111.428-100.856q5.714-13.714 11.714-25.144t14.286-22 12.856-16.572 14.856-16.856 13.144-14.286q0.572-0.572 2.286-2.572t2.572-2.856 2.286-2.856 2-3.144l1.428-2.856t1.144-3.428 0.286-3.714-0.572-3.714q-1.714-8-7.428-12.572t-12.572-4q-28.572 4-49.144 9.144-88 22.856-158.856 73.144-51.428-9.144-100.572-9.144-154.856 0-269.714 75.428 33.142-2.286 50.286-2.286 92 0 176.572 25.714t150.856 73.714q71.428 52.572 109.714 121.144t38.286 145.144q0 44-13.144 86.856 73.714-40.572 116.572-101.714t42.858-131.428z" />
</font>
</defs>
</svg>
